<?xml version="1.0" standalone="no"?>
<!DOCTYPE svg PUBLIC "-//W3C//DTD SVG 1.1//EN" "http://www.w3.org/Graphics/SVG/1.1/DTD/svg11.dtd" >
<svg xmlns="http://www.w3.org/2000/svg">
<metadata>Generated by IcoMoon</metadata>
<defs>
<font id="tripheist" horiz-adv-x="1024">
<font-face units-per-em="1024" ascent="960" descent="-64" />
<missing-glyph horiz-adv-x="1024" />
<glyph unicode="&#x20;" horiz-adv-x="512" d="" />
<glyph unicode="&#xe900;" glyph-name="wishlist" horiz-adv-x="1188" d="M1154.662 618.721c0-93.987-33.608-177.473-102.404-264.645-60.276-76.376-123.413-134.733-303.608-288.403-52.375-44.466-93.332-79.613-134.954-116.019-20.833-18.187-51.898-18.187-72.726-0.004-42.748 37.295-85.894 74.327-134.987 116.007-324.474 276.492-405.984 374.85-405.984 553.024 0 193.942 135.811 341.32 316.169 341.32 64.39 0.262 126.958-21.357 177.537-61.382 32.562-26.052 60.74-57.042 83.544-91.78 22.808 34.74 51 65.742 83.629 91.848 50.482 39.948 113.035 61.566 177.41 61.314 180.25-0.023 316.201-147.425 316.374-341.279zM838.246 919.040h-0.083c-55.106 0.224-108.654-18.278-151.781-52.405-37.454-29.967-68.438-67.222-91.078-109.51l-18.056-33.725-18.055 33.726c-22.639 42.288-53.623 79.543-90.991 109.441-43.213 34.196-96.761 52.698-151.951 52.473-157.038 0-275.292-128.325-275.292-300.36 0-160.788 77.212-253.959 391.561-521.824 49.194-41.766 92.474-78.912 135.382-116.347 5.401-4.715 13.455-4.715 18.841-0.013 41.785 36.548 82.882 71.815 135.362 116.371 177.842 151.664 240.067 209.178 297.998 282.583 63.456 80.406 93.597 155.279 93.597 239.251-0.154 171.956-118.574 300.337-275.456 300.337z" />
<glyph unicode="&#xe901;" glyph-name="users" horiz-adv-x="1434" d="M1015.706 375.654c89.17-51.258 145.562-144.916 149.146-247.706v-192h256v192c0 139.571-228.506 222.106-405.146 247.706zM908.851 448c141.385 0 256 114.615 256 256s-114.615 256-256 256c-29.027-0.464-57.786-5.652-85.146-15.36 113.491-140.355 113.491-340.925 0-481.28 27.36-9.708 56.118-14.896 85.146-15.36zM524.8 448c141.385 0 256 114.615 256 256s-114.615 256-256 256c-141.385 0-256-114.615-256-256s114.615-256 256-256zM524.8 832c70.692 0 128-57.308 128-128s-57.308-128-128-128c-70.692 0-128 57.308-128 128 0.197 70.611 57.389 127.803 128 128zM524.8 384c-170.906 0-512-85.76-512-256v-192h1024v192c0 170.24-341.146 256-512 256zM908.8 64h-768v63.334c12.8 46.080 211.2 128.666 384 128.666s371.2-82.586 384-128v-64z" />
<glyph unicode="&#xe902;" glyph-name="twitter" horiz-adv-x="1178" d="M1149.952 843.469c-25.923-11.848-52.905-21.225-80.589-28.006 30.874 30.179 53.749 67.57 66.56 108.8 1.786 5.248 0.132 11.053-4.15 14.573s-10.298 4.017-15.101 1.248c-38.344-23.371-79.921-40.968-123.392-52.224-2.509-0.647-5.089-0.974-7.68-0.973-7.993 0.051-15.679 3.082-21.555 8.499-45.554 41.62-105.004 64.735-166.707 64.819-27.103-0.079-54.031-4.363-79.821-12.698-82.902-27.374-145.366-96.232-164.557-181.402-7.372-31.298-9.398-63.617-5.99-95.59 0.299-2.632-0.518-5.269-2.253-7.27-1.742-2.036-4.284-3.214-6.963-3.226h-0.87c-179.246 17.404-343.432 107.801-453.99 249.958-2.672 3.392-6.858 5.231-11.163 4.902s-8.164-2.781-10.289-6.54c-57.754-102.677-41.088-231.112 40.96-315.648-20.126 4.925-39.463 12.646-57.446 22.938-4.103 2.285-9.113 2.209-13.145-0.198s-6.477-6.78-6.413-11.476c-1.897-101.701 55.562-195.207 147.149-239.462h-5.53c-14.249 0.006-28.464 1.395-42.445 4.147-4.648 0.8-9.375-0.9-12.449-4.478s-4.043-8.506-2.553-12.981c27.908-91.891 105.099-160.295 199.68-176.947-76.474-53.219-167.438-81.687-260.608-81.562h-29.133c-8.999-0.026-16.8-6.237-18.842-15.002-2.118-8.856 1.759-18.061 9.574-22.733 104.936-63.044 225.025-96.402 347.443-96.512 102.605-0.927 204.102 21.262 296.96 64.922 83.403 40.011 157.429 97.166 217.242 167.731 113.78 134.516 176.841 304.642 178.227 480.819v3.942c-0.035 13.28 5.838 25.888 16.026 34.406 38.85 32.559 72.606 70.751 100.147 113.306 3.39 4.911 3.128 11.472-0.644 16.097s-10.145 6.203-15.638 3.871l-0.051-0.051z" />
<glyph unicode="&#xe903;" glyph-name="map-marker" horiz-adv-x="788" d="M393.846 960c-217.758 0-393.846-160.256-393.846-358.4 0-268.8 393.846-665.6 393.846-665.6s393.846 396.8 393.846 665.6c0 198.144-176.089 358.4-393.846 358.4zM112.522 601.6c0 141.312 126.031 256 281.324 256s281.324-114.688 281.324-256c0-147.456-162.028-368.128-281.324-505.856-117.012 136.704-281.324 360.133-281.324 505.856zM492.308 603.451c0-54.379-44.083-98.462-98.462-98.462s-98.462 44.083-98.462 98.462c0 54.379 44.083 98.462 98.462 98.462s98.462-44.083 98.462-98.462z" />
<glyph unicode="&#xe904;" glyph-name="long-arrow" horiz-adv-x="2048" d="M1537.28 576h-1537.28v-256h1537.28v-384l510.72 512-510.72 512z" />
<glyph unicode="&#xe905;" glyph-name="linkedin" horiz-adv-x="1069" d="M1004.722 904.125c-35.236 36.418-83.965 56.641-134.634 55.875h-635.058c-50.667 0.761-99.395-19.461-134.634-55.875-36.463-35.216-56.735-83.946-56.008-134.634v-635.058c-0.761-50.667 19.461-99.395 55.875-134.634 35.232-36.43 83.96-56.669 134.634-55.919h635.192c105.134 0.196 190.313 85.375 190.509 190.509v635.103c0.761 50.667-19.461 99.395-55.875 134.634zM354.126 109.323h-152.843v458.886h152.843v-458.886zM340.235 653.379c-17.077-15.682-39.704-23.903-62.865-22.84h-0.668c-22.635-0.936-44.69 7.298-61.173 22.84-15.451 14.695-23.986 35.225-23.507 56.543-0.582 21.567 8.222 42.326 24.131 56.899 17.057 15.323 39.419 23.389 62.33 22.483 22.697 1.073 44.871-7.029 61.529-22.483 15.473-14.851 24.166-35.407 24.042-56.854 0.467-21.391-8.195-41.969-23.819-56.587zM903.658 109.323h-152.621v245.181c0 69.216-25.57 103.84-76.711 103.869-17.729 0.573-35.086-5.171-48.974-16.206-13.006-10.478-23.235-23.994-29.785-39.357-3.599-12-5.106-24.531-4.452-37.042v-256.668h-152.977c1.336 276.955 1.336 429.991 0 459.108h152.799v-64.824c28.463 48.251 80.955 77.16 136.949 75.42 48.112 2.025 94.722-16.99 127.688-52.090 35.002-43.4 52.192-98.486 48.083-154.090v-263.302z" />
<glyph unicode="&#xe906;" glyph-name="light-bolt" horiz-adv-x="704" d="M685.632 531.2h-285.696v428.8l-399.936-599.936h285.888v-428.8z" />
<glyph unicode="&#xe907;" glyph-name="instagram" d="M713.372 960h-410.624c-167.132-0.172-302.576-135.616-302.748-302.748v-410.713c0.172-167.132 135.616-302.576 302.748-302.748h410.713c167.132 0.172 302.576 135.616 302.748 302.748v410.713c-0.172 167.167-135.67 302.625-302.837 302.748zM913.72 246.628c0-110.649-89.699-200.348-200.348-200.348h-410.624c-110.649 0-200.348 89.699-200.348 200.348v410.624c0 110.649 89.699 200.348 200.348 200.348h410.713c53.136 0 104.095-21.108 141.667-58.681s58.681-88.532 58.681-141.667v-410.713l-0.089 0.089zM508.038 697.233c-135.459 0-245.27-109.811-245.27-245.27s109.811-245.27 245.27-245.27c135.459 0 245.27 109.811 245.27 245.27-0.147 135.398-109.872 245.123-245.27 245.27zM508.038 302.058c-82.765 0-149.86 67.095-149.86 149.86s67.095 149.86 149.86 149.86c82.765 0 149.86-67.095 149.86-149.86 0-39.745-15.789-77.863-43.893-105.967s-66.222-43.893-105.967-43.893zM836.118 710.144c0-37.252-30.199-67.45-67.45-67.45s-67.45 30.199-67.45 67.45c0 37.252 30.199 67.45 67.45 67.45s67.45-30.199 67.45-67.45z" />
<glyph unicode="&#xe908;" glyph-name="hotel" horiz-adv-x="995" d="M875.696 897.712v62.288h-436.575v-62.61h-121.066v-376.51c74.264-43.153 119.699-122.802 119.047-208.691 0-53.482-33.587-140.756-102.663-266.825-5.481-10.025-10.942-19.827-16.384-29.403v-56.817h311.589v190.727h59.421v-190.727h305.591v938.13l-118.96 0.439zM570.105 216.869h-59.509v62.054h59.538l-0.029-62.054zM570.105 341.241h-59.509v62.054h59.538l-0.029-62.054zM570.105 462.775h-59.509v62.054h59.538l-0.029-62.054zM689.181 217.015h-59.538v61.908h59.421l0.117-61.908zM689.181 341.387h-59.538v61.908h59.421l0.117-61.908zM689.181 462.921h-59.538v61.908h59.421l0.117-61.908zM748.72 608.037h-59.655v72.265h-59.538v-72.558h-59.538v207.287h59.538v-72.558h59.538v72.558h59.538l0.117-206.994zM808.229 216.869h-59.538v62.054h59.538v-62.054zM808.229 341.241h-59.538v62.054h59.538v-62.054zM808.229 462.775h-59.538v62.054h59.538v-62.054zM167.702 464.794c-92.579-0.097-167.605-75.123-167.702-167.702 0-22.469 12.288-81.657 94.618-225.543 27.004-47.192 54.243-90.697 73.143-119.808 18.812 29.257 46.080 72.587 73.143 119.808 82.33 143.887 94.618 203.074 94.618 225.543-0.097 92.625-75.194 167.67-167.819 167.702zM167.702 186.558c-61.046 0-110.533 49.488-110.533 110.533s49.488 110.533 110.533 110.533c61.046 0 110.533-49.488 110.533-110.533-0.081-61.013-49.521-110.453-110.533-110.533zM167.673 362.686c-28.164 0-50.995-22.831-50.995-50.995s22.831-50.995 50.995-50.995c28.164 0 50.995 22.831 50.995 50.995-0.032 28.151-22.845 50.963-50.995 50.995z" />
<glyph unicode="&#xe909;" glyph-name="globe" horiz-adv-x="1069" d="M556.522 960h-1.736c-282.77-0.074-511.94-229.364-511.866-512.134s229.364-511.94 512.134-511.866h1.736c282.77 0.074 511.94 229.364 511.866 512.134s-229.364 511.94-512.134 511.866zM1000.092 482.504h-190.998c-1.911 63.16-9.993 125.983-24.131 187.57 42.231 13.577 83.173 30.875 122.346 51.69 53.974-68.785 86.271-152.069 92.783-239.26zM522.017 482.504h-152.086c1.642 57.264 8.904 114.229 21.682 170.073 42.885-9.649 86.537-15.504 130.449-17.497l-0.045-152.576zM522.017 413.585v-152.353c-43.911-2.009-87.561-7.864-130.449-17.497-12.764 55.772-20.026 112.661-21.682 169.85h152.131zM590.937 413.585h150.884c-1.641-57.103-8.904-113.905-21.682-169.583-42.443 9.555-85.65 15.321-129.113 17.23l-0.089 152.353zM590.937 482.504v152.576c43.455 1.998 86.655 7.763 129.113 17.23 12.78-55.769 20.042-112.66 21.682-169.85l-150.795 0.045zM860.383 772.697c-30.182-15.005-61.433-27.758-93.496-38.155-15.026 47.679-37.004 92.88-65.224 134.144 59.059-20.498 113.139-53.204 158.72-95.989zM701.752 716.778c-36.465-7.902-73.509-12.845-110.77-14.781v180.714c54.874-40.958 93.986-99.547 110.77-165.933zM522.017 883.69v-181.426c-37.69 1.888-75.158 6.907-112.017 15.004 17.006 66.743 56.584 125.544 112.017 166.422zM409.778 867.929c-27.913-41.019-49.719-85.876-64.735-133.165-31.628 10.415-62.471 23.076-92.294 37.888 45.048 42.487 98.579 74.957 157.073 95.277h-0.045zM205.913 721.497c38.756-20.65 79.284-37.785 121.099-51.2-14.453-61.61-22.583-124.533-24.264-187.793h-189.529c6.416 87.116 38.693 170.333 92.694 238.993zM112.952 413.54h189.529c1.895-63.162 9.977-125.985 24.131-187.57-41.736-13.628-82.246-30.755-121.099-51.2-53.787 68.685-85.999 151.778-92.561 238.77zM252.527 123.303c29.895 14.855 60.83 27.518 92.561 37.888 15.004-47.419 36.809-92.409 64.735-133.565-58.469 20.703-112.023 53.278-157.295 95.677zM410.045 178.955c36.861 8.081 74.328 13.099 112.017 15.004v-181.649c-55.512 40.898-95.105 99.8-112.017 166.645zM590.982 13.29v180.936c37.261-1.936 74.305-6.879 110.77-14.781-16.737-66.466-55.854-125.141-110.77-166.155zM701.752 27.314c28.189 41.269 50.137 86.47 65.135 134.144 32.085-10.444 63.338-23.288 93.496-38.422-45.675-42.552-99.694-75.148-158.631-95.722zM907.309 174.503c-39.173 20.815-80.115 38.112-122.346 51.69 14.152 61.494 22.235 124.23 24.131 187.303h190.998c-6.464-87.121-38.769-170.333-92.783-238.993z" />
<glyph unicode="&#xe90a;" glyph-name="facebook" d="M879.171 960h-742.266c-36.325 0.024-71.17-14.39-96.864-40.067s-40.13-60.513-40.13-96.837v-742.266c0-75.61 61.294-136.904 136.904-136.904h366.191l0.623 363.075h-94.342c-12.294 0-22.261 9.967-22.261 22.261l-0.445 117.048c0 12.294 9.967 22.261 22.261 22.261h94.163v112.996c0 131.25 80.139 202.707 197.231 202.707h96.078c12.294 0 22.261-9.967 22.261-22.261v-98.616c0-12.294-9.967-22.261-22.261-22.261h-58.947c-63.666 0-75.999-30.275-75.999-74.663v-97.948h139.932c6.389 0.045 12.488-2.658 16.748-7.419s6.267-11.124 5.513-17.468l-13.891-117.048c-1.338-11.259-10.923-19.713-22.261-19.634h-125.418l-0.623-363.075h217.8c75.61 0 136.904 61.294 136.904 136.904v742.311c0 75.61-61.294 136.904-136.904 136.904z" />
<glyph unicode="&#xe90b;" glyph-name="down-arrow" horiz-adv-x="1536" d="M1355.52 960l-587.52-586.24-587.52 586.24-180.48-180.48 768-768 768 768z" />
<glyph unicode="&#xe90c;" glyph-name="calendar" horiz-adv-x="945" d="M210.038 499.2h105.039v-102.4h-105.039v102.4zM945.231 755.2v-716.8c-0.907-57.206-47.828-102.949-105.039-102.4h-735.153c-27.51-0.357-54.035 10.232-73.735 29.437s-30.961 45.452-31.304 72.963l0.512 716.8c0.228 27.457 11.382 53.693 30.997 72.908s46.074 29.828 73.53 29.492h52.5v102.4h105.039v-102.4h420.076v102.4h105.039v-102.4h52.5c57.211 0.549 104.132-45.194 105.039-102.4zM105.039 652.8h735.153v102.4h-735.153v-102.4zM840.192 38.4v512h-735.153v-512h735.153zM630.154 396.8h105.039v102.4h-105.039v-102.4zM420.116 396.8h105.039v102.4h-105.039v-102.4z" />
<glyph unicode="&#xe90d;" glyph-name="arrow" horiz-adv-x="683" d="M50.347 56.32l390.827 391.68-390.827 391.68 120.32 120.32 512-512-512-512z" />
<glyph unicode="&#xe90e;" glyph-name="plane" d="M994.897 931.074c-17.876 17.878-42.573 28.936-69.852 28.936-27.994 0-53.268-11.645-71.243-30.354l-0.032-0.033-209.601-218.594-511.894 169.416-107.491-107.456 426.708-262.639-215.974-225.002-138.471 22.73-97.047-97.188 203.547-71.307 71.307-203.547 97.117 97.117-22.73 138.471 225.002 215.974 262.745-426.708 107.456 107.456-169.416 511.858 218.594 209.849c18.657 17.995 30.243 43.212 30.243 71.135 0 27.296-11.071 52.005-28.967 69.884l-0.001 0.001z" />
<glyph unicode="&#xe90f;" glyph-name="taxi" d="M946.808 501.368l-71.8 239.375c-16.037 53.187-64.587 91.258-122.029 91.258-0.215 0-0.429-0.001-0.643-0.002h-48.336v64c0 35.346-28.654 64-64 64v0h-256c-35.346 0-64-28.654-64-64v0-64h-48.369c-0.181 0.001-0.396 0.001-0.61 0.001-57.442 0-105.993-38.071-121.795-90.357l-0.234-0.901-71.8-239.375c-45.748-20.175-77.118-65.099-77.192-117.359v-256.010c0-35.346 28.654-64 64-64v0 0-64c0-35.346 28.654-64 64-64v0h64c35.346 0 64 28.654 64 64v0 64h512v-64c0-35.346 28.654-64 64-64v0h64c35.346 0 64 28.654 64 64v0 64c35.346 0 64 28.654 64 64v0 256c-0.036 52.305-31.416 97.272-76.372 117.136l-0.819 0.323zM271.631 704h480.738l57.615-192h-595.968l57.615 192zM256 224.015c-35.346 0-64 28.654-64 64s28.654 64 64 64c35.346 0 64-28.654 64-64v0c0-35.346-28.654-64-64-64v0zM768 224.015c-35.346 0-64 28.654-64 64s28.654 64 64 64c35.346 0 64-28.654 64-64v0c0-35.346-28.654-64-64-64v0z" />
<glyph unicode="&#xe910;" glyph-name="bell" horiz-adv-x="939" d="M896.008 495.682c-23.563 0-42.664 19.101-42.664 42.664v0c0.001 0.353 0.002 0.772 0.002 1.19 0 123.339-50.158 234.964-131.19 315.588l-0.019 0.019c-7.479 7.678-12.091 18.179-12.091 29.758 0 23.563 19.101 42.664 42.664 42.664 11.579 0 22.080-4.612 29.767-12.1l-0.009 0.009c96.509-95.986 156.237-228.87 156.237-375.704 0-0.5-0.001-1.001-0.002-1.501v0.077c0-23.563-19.101-42.664-42.664-42.664v0zM42.664 495.682c-23.556 0.017-42.647 19.108-42.664 42.663v0.002c-0.001 0.431-0.002 0.942-0.002 1.453 0 146.834 59.728 279.717 156.213 375.68l0.024 0.023c7.678 7.479 18.179 12.091 29.758 12.091 23.563 0 42.664-19.101 42.664-42.664 0-11.579-4.612-22.080-12.1-29.767l0.009 0.009c-81.068-80.632-131.239-192.256-131.239-315.599 0-0.432 0.001-0.863 0.002-1.295v0.067c-0.017-23.556-19.108-42.647-42.663-42.664h-0.002zM869.508 238.345c-62.265 52.766-101.523 131.025-101.523 218.452 0 0.076 0 0.152 0 0.228v-0.012 118.979c-0.295 149.713-110.606 273.573-254.375 295.053l-1.64 0.201v46.089c0 23.563-19.101 42.664-42.664 42.664s-42.664-19.101-42.664-42.664v0-46.089c-145.422-21.657-255.747-145.531-256.015-295.226v-118.977c0-0.036 0-0.078 0-0.12 0-87.641-39.404-166.078-101.462-218.563l-0.421-0.347c-15.966-13.773-26.011-34.031-26.011-56.635 0-41.222 33.406-74.641 74.622-74.662h703.991c41.198 0.048 74.578 33.457 74.578 74.662 0 22.832-10.249 43.271-26.397 56.967l-0.108 0.089zM469.336-64c76.99 0.116 141.244 54.502 156.56 126.946l0.185 1.047h-313.491c15.502-73.49 79.756-127.877 156.733-127.992h0.013z" />
<glyph unicode="&#xe911;" glyph-name="menu" d="M113.778 789.333v-113.778c0-31.419 25.47-56.889 56.889-56.889h113.778c31.419 0 56.889 25.47 56.889 56.889v113.778c0 31.419-25.47 56.889-56.889 56.889h-113.778c-31.419 0-56.889-25.47-56.889-56.889zM0 789.333c0 94.257 76.41 170.667 170.667 170.667h113.778c94.257 0 170.667-76.41 170.667-170.667v-113.778c0-94.257-76.41-170.667-170.667-170.667h-113.778c-94.257 0-170.667 76.41-170.667 170.667v113.778zM682.667 789.333v-113.778c0-31.419 25.47-56.889 56.889-56.889h113.778c31.419 0 56.889 25.47 56.889 56.889v113.778c0 31.419-25.47 56.889-56.889 56.889h-113.778c-31.419 0-56.889-25.47-56.889-56.889zM568.889 789.333c0 94.257 76.41 170.667 170.667 170.667h113.778c94.257 0 170.667-76.41 170.667-170.667v-113.778c0-94.257-76.41-170.667-170.667-170.667h-113.778c-94.257 0-170.667 76.41-170.667 170.667v113.778zM113.778 220.444v-113.778c0-31.419 25.47-56.889 56.889-56.889h113.778c31.419 0 56.889 25.47 56.889 56.889v113.778c0 31.419-25.47 56.889-56.889 56.889h-113.778c-31.419 0-56.889-25.47-56.889-56.889zM0 220.444c0 94.257 76.41 170.667 170.667 170.667h113.778c94.257 0 170.667-76.41 170.667-170.667v-113.778c0-94.257-76.41-170.667-170.667-170.667h-113.778c-94.257 0-170.667 76.41-170.667 170.667v113.778zM682.667 220.444v-113.778c0-31.419 25.47-56.889 56.889-56.889h113.778c31.419 0 56.889 25.47 56.889 56.889v113.778c0 31.419-25.47 56.889-56.889 56.889h-113.778c-31.419 0-56.889-25.47-56.889-56.889zM568.889 220.444c0 94.257 76.41 170.667 170.667 170.667h113.778c94.257 0 170.667-76.41 170.667-170.667v-113.778c0-94.257-76.41-170.667-170.667-170.667h-113.778c-94.257 0-170.667 76.41-170.667 170.667v113.778z" />
<glyph unicode="&#xe912;" glyph-name="arrow-left" horiz-adv-x="683" d="M632.653 839.68l-390.827-391.68 390.827-391.68-120.32-120.32-512 512 512 512z" />
<glyph unicode="&#xe913;" glyph-name="arrow-right" horiz-adv-x="683" d="M50.347 56.32l390.827 391.68-390.827 391.68 120.32 120.32 512-512-512-512z" />
<glyph unicode="&#xe914;" glyph-name="add" d="M114.825 353.724c-56.554 0-102.4 45.846-102.4 102.4s45.846 102.4 102.4 102.4h743.97c56.554 0 102.4-45.846 102.4-102.4s-45.846-102.4-102.4-102.4h-743.97zM384.41 828.109c0 56.554 45.846 102.4 102.4 102.4s102.4-45.846 102.4-102.4v-743.97c0-56.554-45.846-102.4-102.4-102.4s-102.4 45.846-102.4 102.4v743.97z" />
<glyph unicode="&#xe915;" glyph-name="min" horiz-adv-x="3840" d="M597.504-33.536c-212.077 0-384 171.923-384 384s171.923 384 384 384h2789.888c212.077 0 384-171.923 384-384s-171.923-384-384-384h-2789.888z" />
<glyph unicode="&#xe916;" glyph-name="coins" horiz-adv-x="1214" d="M603.781 161.204c12.819 0 23.211-10.392 23.211-23.211s-10.392-23.211-23.211-23.211c-12.819 0-23.211 10.392-23.211 23.211s10.392 23.211 23.211 23.211zM1098.449 914.83c64.247-25.865 99.631-62.654 99.631-103.614v-557.132c0-40.96-35.385-77.748-99.631-103.614-61.734-22.995-127.016-35.010-192.891-35.499v-0.19c0-79.417-129.745-139.302-301.777-139.302s-301.777 59.885-301.777 139.302v0.19c-65.876 0.489-131.158 12.503-192.891 35.499-64.247 25.865-99.631 62.692-99.631 103.614v557.132c0 40.96 35.385 77.748 99.631 103.614 66.902 24.723 137.809 36.824 209.124 35.688 71.328 1.141 142.248-10.96 209.161-35.688 28.786-10.405 54.891-27.092 76.421-48.849 21.529 21.757 47.635 38.444 76.421 48.849 66.902 24.723 137.809 36.824 209.124 35.688 71.302 1.131 142.196-10.97 209.086-35.688zM1151.545 393.349h-0.076v64.095c-16.504-11.551-34.329-21.087-53.096-28.407-61.734-22.996-127.015-35.010-192.891-35.499 0-0.19 0-0.19 0-0.19v-92.767c59.91 0.597 119.275 11.449 175.521 32.085 43.501 17.673 70.542 40.846 70.542 60.681zM580.57 671.953l-0.228 64.095c-16.504-11.551-34.329-21.087-53.096-28.407-66.902-24.723-137.809-36.824-209.124-35.688-71.315-1.135-142.222 10.965-209.124 35.688-18.767 7.319-36.593 16.856-53.096 28.407v-64.095c0-19.949 27.041-43.16 70.542-60.681 61.434-22.343 126.428-33.293 191.791-32.313 65.363-0.98 130.357 9.97 191.791 32.313 43.501 17.673 70.542 40.846 70.542 60.681zM109.113 568.339c-18.842 7.365-36.732 16.966-53.286 28.596v-64.095c0-19.949 27.041-43.16 70.542-60.681 61.265-22.287 126.074-33.237 191.26-32.313 25.687 30.79 60.046 53.137 98.607 64.133 53.039 17.503 108.381 27.037 164.219 28.293v64.474c-16.504-11.551-34.329-21.087-53.096-28.407-66.902-24.723-137.809-36.824-209.124-35.688-71.315-1.135-142.222 10.965-209.124 35.688zM55.903 457.481l-0.076-63.943c0-19.949 27.041-43.16 70.542-60.681 56.247-20.636 115.612-31.488 175.521-32.085v92.615c0 0.19 0 0.19 0 0.19-65.876 0.49-131.157 12.504-192.891 35.499-18.767 7.319-36.593 16.856-53.096 28.407zM350.815 404.764c-1.581-3.561-2.42-7.406-2.465-11.302 0-20.442 25.183-43.122 67.319-60.681 60.066-22.576 123.882-33.504 188.037-32.199 64.155-1.305 127.971 9.623 188.037 32.199 42.174 17.598 67.319 40.277 67.319 60.681-0.036 3.921-0.875 7.793-2.465 11.378-17.18 39.974-116.508 81.389-252.89 81.389s-235.672-41.415-252.89-81.465zM1151.583 532.651l-0.152 63.905c-16.504-11.551-34.329-21.087-53.096-28.407-66.902-24.723-137.809-36.824-209.124-35.688-71.315-1.135-142.222 10.965-209.124 35.688-18.767 7.319-36.593 16.856-53.096 28.407v-64.474c55.838-1.254 111.181-10.789 164.219-28.293 38.561-10.996 72.92-33.343 98.607-64.133 65.173-0.92 129.97 10.029 191.223 32.313 43.501 17.673 70.542 40.846 70.542 60.681zM1151.583 671.953l-0.228 64.095c-16.504-11.551-34.329-21.087-53.096-28.407-66.902-24.723-137.809-36.824-209.124-35.688-71.315-1.135-142.222 10.965-209.124 35.688-18.767 7.319-36.593 16.856-53.096 28.407v-64.095c0-19.949 27.041-43.16 70.542-60.681 61.434-22.343 126.428-33.293 191.791-32.313 65.363-0.98 130.357 9.97 191.791 32.313 43.501 17.673 70.542 40.846 70.542 60.681zM697.534 871.784c-43.501-17.522-70.542-40.732-70.542-60.681s27.041-43.16 70.542-60.681c61.434-22.343 126.428-33.293 191.791-32.313 65.363-0.98 130.357 9.97 191.791 32.313 43.501 17.673 70.542 40.732 70.542 60.681s-27.041 43.16-70.542 60.681c-61.434 22.344-126.428 33.294-191.791 32.313-65.363 0.98-130.357-9.97-191.791-32.313zM126.445 871.784c-43.501-17.522-70.542-40.732-70.542-60.681s27.041-43.16 70.542-60.681c61.434-22.343 126.428-33.293 191.791-32.313 65.363-0.98 130.357 9.97 191.791 32.313 43.501 17.673 70.542 40.732 70.542 60.681s-27.041 43.16-70.542 60.681c-61.434 22.343-126.428 33.293-191.791 32.313-65.363 0.98-130.357-9.97-191.791-32.313zM126.445 193.555c56.229-20.589 115.568-31.402 175.445-31.972v92.843c-65.876 0.489-131.158 12.503-192.891 35.499-18.767 7.319-36.593 16.856-53.096 28.407v-64.095c0-19.949 27.041-43.16 70.542-60.681zM791.817 54.177v-0.038c42.174 17.56 67.205 40.239 67.205 60.833v62.767c-5.643-4.088-11.491-7.886-17.522-11.378-44.135-23.473-92.22-38.606-141.843-44.639-1.13-0.171-2.271-0.26-3.413-0.265-12.207-0.051-22.367 9.362-23.247 21.538s7.822 22.952 19.91 24.656c107.899 15.853 166.116 56.434 166.116 86.547v62.957c-76.991-45.745-165.809-67.652-255.241-62.957-89.47-4.718-178.332 17.19-255.355 62.957v-63.147c0-30.151 58.216-70.694 166.116-86.547 12.088-1.704 20.789-12.48 19.91-24.656s-11.040-21.589-23.247-21.538c-1.143 0.005-2.284 0.094-3.413 0.265-49.623 6.033-97.708 21.166-141.843 44.639-6.031 3.492-11.879 7.289-17.522 11.378v-62.692c0-20.442 25.183-43.122 67.319-60.681 60.066-22.576 123.882-33.504 188.037-32.199 64.155-1.305 127.971 9.623 188.037 32.199zM1081.079 193.555h0.038c43.387 17.408 70.542 40.695 70.428 60.53v64.095c-16.504-11.551-34.329-21.087-53.097-28.407-61.734-22.995-127.016-35.009-192.891-35.499v-92.805c59.91 0.597 119.275 11.449 175.521 32.085z" />
<glyph unicode="&#xe917;" glyph-name="robot-suitcase" horiz-adv-x="672" d="M644.32 553.664c8.077 0 14.624 6.547 14.624 14.624v75.008c0 40.648-32.952 73.6-73.6 73.6h-41.6c-4.567 17.319-16.563 31.73-32.768 39.36v112.736c-0.035 28.569-23.111 51.76-51.68 51.936h-3.2c-2.906 17.843-18.274 30.979-36.352 31.072h-87.168c-18.211-0.033-33.695-13.304-36.512-31.296-26.681-2.523-47.075-24.912-47.104-51.712v-112.864c-16.205-7.63-28.201-22.041-32.768-39.36h-41.6c-40.648 0-73.6-32.952-73.6-73.6v-77.92h-17.568c-24.116-0.018-43.662-19.564-43.68-43.68v-240.32c0-8.085 6.555-14.64 14.64-14.64s14.64 6.555 14.64 14.64v240.32c0.018 7.946 6.454 14.382 14.4 14.4h17.568v-355.872h-17.568c-7.946 0.018-14.382 6.454-14.4 14.4v28.352c0 8.085-6.555 14.64-14.64 14.64s-14.64-6.555-14.64-14.64v-28.352c0.018-24.116 19.564-43.662 43.68-43.68h17.568v-77.92c0-19.52 7.754-38.24 21.557-52.043s32.523-21.557 52.043-21.557h17.184c10.902-28.030 37.893-46.492 67.968-46.492s57.066 18.463 67.968 46.492h104.48c10.902-28.030 37.893-46.492 67.968-46.492s57.066 18.463 67.968 46.492h17.184c40.648 0 73.6 32.952 73.6 73.6v436.896c0 8.085-6.555 14.64-14.64 14.64s-14.64-6.555-14.64-14.64v-436.896c-0.035-24.392-19.8-44.157-44.192-44.192h-12.288c-1.424 39.222-33.633 70.282-72.88 70.282s-71.456-31.061-72.88-70.282h-94.656c-1.424 39.222-33.633 70.282-72.88 70.282s-71.456-31.061-72.88-70.282h-12.288c-24.404 0.018-44.189 19.788-44.224 44.192v570.4c0.035 24.404 19.82 44.174 44.224 44.192h39.52v-433.92c0.035-33.299 27.021-60.285 60.32-60.32h211.2c33.299 0.035 60.285 27.021 60.32 60.32v433.92h39.52c24.392-0.035 44.157-19.8 44.192-44.192v-74.976c0-8.077 6.547-14.624 14.624-14.624l-0.064-0.032zM500.32 69.504c24.124 0 43.68-19.556 43.68-43.68s-19.556-43.68-43.68-43.68c-24.124 0-43.68 19.556-43.68 43.68 0 24.129 19.551 43.694 43.68 43.712v-0.032zM259.904 69.504c24.124 0 43.68-19.556 43.68-43.68s-19.556-43.68-43.68-43.68c-24.124 0-43.68 19.556-43.68 43.68 0 24.129 19.551 43.694 43.68 43.712v-0.032zM324.864 914.976c0 4.277 3.467 7.744 7.744 7.744h87.168c4.277 0 7.744-3.467 7.744-7.744v-17.376c0-2.054-0.816-4.024-2.268-5.476s-3.422-2.268-5.476-2.268h-87.2c-4.277 0-7.744 3.467-7.744 7.744l0.032 17.376zM516.576 253.6c-0.018-17.136-13.904-31.022-31.040-31.040h-211.2c-17.136 0.018-31.022 13.904-31.040 31.040v448c0.018 17.136 13.904 31.022 31.040 31.040h76.288c8.085 0 14.64 6.555 14.64 14.64s-6.555 14.64-14.64 14.64h-72.608v107.072c0.006 10.701 7.487 19.942 17.952 22.176 3.132-17.664 18.477-30.541 36.416-30.56h87.168c18.127 0.031 33.566 13.181 36.48 31.072h3.2c12.505-0.018 22.638-10.151 22.656-22.656v-107.168h-72.608c-8.085 0-14.64-6.555-14.64-14.64s6.555-14.64 14.64-14.64h76.256c17.136-0.018 31.022-13.904 31.040-31.040v-447.936zM380.096 375.84c-21.757 0-41.371-13.106-49.697-33.207s-3.724-43.238 11.661-58.622c15.384-15.384 38.521-19.987 58.622-11.661s33.207 27.94 33.207 49.697c-0.035 29.694-24.098 53.757-53.792 53.792zM380.096 297.504c-13.555 0-24.544 10.989-24.544 24.544s10.989 24.544 24.544 24.544c13.555 0 24.544-10.989 24.544-24.544s-10.989-24.544-24.544-24.544zM419.264 439.616h-78.336c-8.085 0-14.64-6.555-14.64-14.64s6.555-14.64 14.64-14.64h78.336c8.085 0 14.64 6.555 14.64 14.64s-6.555 14.64-14.64 14.64zM419.264 510.112h-78.336c-8.085 0-14.64-6.555-14.64-14.64s6.555-14.64 14.64-14.64h78.336c8.085 0 14.64 6.555 14.64 14.64s-6.555 14.64-14.64 14.64zM419.264 580.64h-78.336c-8.085 0-14.64-6.555-14.64-14.64s6.555-14.64 14.64-14.64h78.336c8.085 0 14.64 6.555 14.64 14.64s-6.555 14.64-14.64 14.64zM567.232 639.648v-21.056c0-8.085 6.555-14.64 14.64-14.64s14.64 6.555 14.64 14.64v21.056c0 8.085-6.555 14.64-14.64 14.64s-14.64-6.555-14.64-14.64z" />
<glyph unicode="&#xe918;" glyph-name="translation" horiz-adv-x="1061" d="M925.257 594.249c44.685-0.060 80.905-36.248 81.006-80.933v-374.309c-0.060-44.733-36.309-80.982-81.042-81.042h-36.571v-84.919c-0.013-7.452-4.313-14.231-11.049-17.419s-14.704-2.216-20.476 2.498l-122.039 99.84h-273.042c-44.742 0.040-81.002 36.301-81.042 81.042v168.96c-83.757-11.808-168.769 10.221-236.251 61.221l-82.066-21.467c-7.209-1.909-14.871 0.512-19.675 6.215s-5.886 13.666-2.78 20.445l32.329 71.022c-68.005 101.009-72.49 231.946-11.557 337.371 5.547 8.76 17.023 11.576 25.995 6.377s12.236-16.554 7.395-25.724c-55.337-95.774-49.104-215.15 15.909-304.64 4.102-5.62 4.857-13.014 1.975-19.346l-20.078-44.105 51.2 13.385c6.122 1.884 12.78 0.61 17.774-3.401 49.613-40.279 111.639-62.143 175.543-61.879 117.623 0.012 222.685 73.575 262.928 184.1s7.077 234.418-83.001 310.056c-90.079 75.638-217.841 86.875-319.739 28.121-5.985-3.695-13.505-3.844-19.631-0.388s-9.889 9.969-9.822 17.002c0.067 7.033 3.953 13.474 10.144 16.812 98.557 56.789 219.918 56.707 318.398-0.215s159.129-162.042 159.115-275.789c0-9.728-0.475-19.383-1.317-28.891h271.47zM967.717 138.862v374.455c-0.020 23.441-19.018 42.439-42.459 42.459h-277.358c-25.462-116.257-113.434-208.725-228.279-239.945v-176.823c0.020-23.441 19.018-42.439 42.459-42.459h272.347c10.35 0 14.921 0 20.187-4.791l95.378-78.007v63.488c0 10.664 8.645 19.31 19.31 19.31h55.954c23.384 0.020 42.359 18.929 42.459 42.313zM789.65 269.019l23.442-52.809c3.141-6.371 2.531-13.953-1.589-19.739s-11.085-8.844-18.134-7.959c-7.048 0.884-13.042 5.567-15.605 12.192l-29.257 66.487h-109.385l-29.257-66.487c-2.563-6.625-8.557-11.308-15.605-12.192s-14.013 2.173-18.134 7.959c-4.12 5.787-4.731 13.368-1.589 19.739l23.186 52.809c-8.002 3.929-12.265 12.834-10.308 21.531s9.623 14.918 18.537 15.041h7.899l62.171 141.824c3.089 6.996 10.016 11.509 17.664 11.509s14.575-4.513 17.664-11.509l62.171-141.824h7.899c8.914-0.123 16.58-6.343 18.537-15.041s-2.306-17.602-10.308-21.531zM655.872 305.591h75.483l-37.742 86.053-37.742-86.053zM125.184 815.506c-5.115 0.023-10.016 2.059-13.641 5.669-6.508 6.521-7.504 16.731-2.377 24.386s14.947 10.622 23.454 7.087c8.508-3.535 13.333-12.588 11.524-21.622s-9.747-15.531-18.96-15.519zM221.513 505.856h-0.073c49.927 27.376 84.214 76.488 92.709 132.791h-67.657c-10.328 0.45-18.47 8.954-18.47 19.291s8.142 18.842 18.47 19.291h69.705v80.457c-0.309 7.093 3.299 13.783 9.395 17.421s13.697 3.638 19.793 0c6.096-3.638 9.704-10.328 9.395-17.421v-80.457h87.771c10.328-0.45 18.47-8.954 18.47-19.291s-8.142-18.842-18.47-19.291h-85.687c8.494-56.303 42.782-105.414 92.709-132.791 8.8-5.376 11.823-16.717 6.866-25.759s-16.143-12.595-25.408-8.069c-42.281 23.193-75.815 59.578-95.488 103.607-19.671-44.030-53.206-80.416-95.488-103.607-6.072-3.709-13.692-3.779-19.831-0.181s-9.801 10.28-9.532 17.39c0.269 7.11 4.427 13.496 10.821 16.619z" />
<glyph unicode="&#xe919;" glyph-name="back-arrow" d="M973.756 534.016h-739.465l340.719 340.787-88.132 85.197-486.878-486.878 486.878-486.878 85.197 85.197-337.783 340.855h739.465z" />
<glyph unicode="&#xe91a;" glyph-name="search" d="M694.21 256.76c1.266 1.684 2.666 3.299 4.199 4.832 1.526 1.526 3.134 2.92 4.81 4.182 62.836 65.163 99.899 153.283 99.899 247.461 0 196.82-159.539 356.383-356.359 356.412-144.16 0.022-274.137-86.802-329.32-219.982s-24.703-286.488 77.226-388.433c101.929-101.944 255.232-132.447 388.421-77.284 42.098 17.436 79.565 42.344 111.124 72.812zM792.971 230.919l187.68-187.68c17.643-17.643 17.643-46.247 0-63.889s-46.247-17.643-63.889 0l-187.662 187.662c-33.167-27.058-70.563-49.609-111.441-66.54-166.953-69.147-359.12-30.911-486.889 96.877s-165.975 319.961-96.804 486.903c69.172 166.943 232.099 275.776 412.805 275.749 246.715-0.037 446.698-200.050 446.698-446.765 0-105.109-36.83-204.198-100.499-282.316z" />
<glyph unicode="&#xe91b;" glyph-name="plane-line" horiz-adv-x="1375" d="M466.129 209.408s780.218-567.098 874.998-1548.969c-3.335-2.989 340.564 1449.785 68.313 1303.489s-745.637 327.187-819.134 375.453c3.335 2.989-108.994-35.934-95.664-23.918s-28.513-106.056-28.513-106.056zM161.733 639.269c-8.359-8.358-13.528-19.904-13.528-32.658 0-13.085 5.442-24.899 14.186-33.302l0.015-0.015 102.195-98.011-79.199-239.411 50.235-50.235 122.88 199.504 105.194-100.937-10.635-64.731 48.245-45.539 30.471 95.276 95.173 33.339-45.349 45.349-64.775-10.562-100.937 105.194 199.49 122.88-50.278 50.191-239.338-79.214-98.011 102.195c-8.421 8.782-20.25 14.239-33.353 14.239-12.765 0-24.321-5.179-32.68-13.551l-0.001-0.001z" />
<glyph unicode="&#xe91c;" glyph-name="Airplane" horiz-adv-x="1148" d="M907.847 47.115c1.093-10.446-3.171-20.736-11.334-27.346l-85.15-68.953c-16.154-13.081-40.349-6.891-48.237 12.34l-157.812 384.756-196.328-158.983 14.574-139.207c1.094-10.446-3.171-20.736-11.334-27.346l-66.413-53.78c-15.217-12.323-37.905-7.644-47.004 9.695l-100.953 192.356-167.163 138.74c-15.068 12.506-14.928 35.67 0.29 47.993l66.413 53.78c8.162 6.61 19.114 8.642 29.105 5.4l133.135-43.198 196.327 158.983-343.516 234.334c-17.171 11.714-18.195 36.668-2.041 49.749l85.15 68.953c8.163 6.61 19.115 8.642 29.106 5.4l481.128-156.132 227.483 184.205c51.023 39.752 124.481 31.332 165.186-18.934s33.668-123.87-16.274-165.885l-227.003-183.823 52.664-503.096zM844.37 57.402l-52.664 503.096c-1.093 10.446 3.171 20.736 11.334 27.346l239.639 194.049c23.614 19.869 26.971 54.987 7.55 78.97s-54.47 28.001-78.357 9.397l-240.114-194.44c-8.163-6.61-19.115-8.642-29.106-5.4l-481.128 156.132-39.651-32.109 343.516-234.334c17.171-11.714 18.195-36.668 2.041-49.749l-241.826-195.827c-8.162-6.61-19.114-8.642-29.105-5.4l-133.135 43.198-23.911-19.363 142.813-118.53c3.152-2.616 5.755-5.83 7.658-9.457l86.247-164.336 23.911 19.363-14.574 139.207c-1.094 10.446 3.171 20.736 11.334 27.346l241.826 195.827c16.154 13.081 40.349 6.891 48.237-12.34l157.812-384.756 39.652 32.11z" />
<glyph unicode="&#xe91d;" d="M102.4 960h815.753c56.554 0 102.4-45.846 102.4-102.4v-815.753c0-56.554-45.846-102.4-102.4-102.4h-815.753c-56.554 0-102.4 45.846-102.4 102.4v815.753c0 56.554 45.846 102.4 102.4 102.4z" />
<glyph unicode="&#xe91e;" d="M759.467 755.883c6.171 0.018 12.096-2.418 16.469-6.772s6.835-10.268 6.844-16.439v-171.554c0-12.819-10.392-23.211-23.211-23.211s-23.211 10.392-23.211 23.211v115.507l-186.095-186.095c-5.866-5.866-14.415-8.156-22.428-6.009s-14.271 8.406-16.418 16.418c-2.147 8.013 0.144 16.562 6.009 22.428l186.061 186.095h-115.473c-12.819 0-23.211 10.392-23.211 23.211s10.392 23.211 23.211 23.211h171.452zM469.47 442.607c9.004-9.054 9.004-23.68 0-32.734l-186.095-186.095h115.507c12.819 0 23.211-10.392 23.211-23.211s-10.392-23.211-23.211-23.211h-171.554c-12.803 0.037-23.173 10.407-23.211 23.211v171.452c0 12.819 10.392 23.211 23.211 23.211s23.211-10.392 23.211-23.211v-115.507l186.095 186.095c4.353 4.356 10.259 6.804 16.418 6.804s12.065-2.448 16.418-6.804z" />
<glyph unicode="&#xe91f;" glyph-name="snowflake" horiz-adv-x="899" d="M871.816 243.793l-102.011 58.901 88.41 52.13c9.84 6.14 16.291 16.908 16.291 29.183 0 18.935-15.349 34.284-34.284 34.284-6.181 0-11.98-1.636-16.987-4.498l0.168 0.088-121.794-71.816-183.631 105.944 183.592 106.003 121.814-71.797c4.714-2.599 10.334-4.128 16.31-4.128 18.935 0 34.284 15.349 34.284 34.284 0 12.063-6.23 22.671-15.648 28.782l-0.133 0.081-88.43 52.111 102.050 58.921c10.044 6.1 16.651 16.979 16.651 29.402 0 18.935-15.349 34.284-34.284 34.284-6.113 0-11.853-1.6-16.822-4.404l0.171 0.089-101.952-58.862-0.92 102.656c-1.046 18.090-15.971 32.364-34.23 32.364-18.479 0-33.544-14.62-34.258-32.925l-0.002-0.065 1.272-141.402-183.611-106.022v211.927l123.105 69.586c10.48 6.007 17.427 17.128 17.427 29.871 0 18.951-15.363 34.315-34.315 34.315-6.208 0-12.031-1.649-17.055-4.532l0.167 0.088-89.467-50.506v117.802c-0.898 18.217-15.886 32.646-34.245 32.646s-33.347-14.43-34.242-32.566l-0.003-0.080v-117.802l-89.428 50.506c-4.731 2.621-10.373 4.164-16.376 4.164-18.935 0-34.284-15.349-34.284-34.284 0-12.534 6.726-23.497 16.766-29.477l0.157-0.087 123.105-69.644v-211.946l-183.611 106.022 1.272 141.402c0.001 0.093 0.001 0.204 0.001 0.314 0 18.821-15.175 34.098-33.957 34.263h-0.329c-0.018 0-0.039 0-0.060 0-18.824 0-34.105-15.172-34.282-33.954v-0.017l-0.861-102.617-102.011 58.901c-5.033 3.067-11.121 4.882-17.633 4.882-18.935 0-34.284-15.349-34.284-34.284 0-12.821 7.038-23.999 17.462-29.88l0.171-0.089 102.030-58.921-88.43-52.15c-10.501-5.994-17.465-17.121-17.465-29.875 0-18.935 15.349-34.284 34.284-34.284 6.66 0 12.877 1.899 18.138 5.185l-0.144-0.084 121.833 71.797 183.592-106.003-183.611-106.003-121.794 71.816c-5.183 3.315-11.504 5.283-18.286 5.283-18.935 0-34.284-15.349-34.284-34.284 0-12.871 7.093-24.086 17.583-29.948l0.174-0.089 88.313-52.13-101.932-58.823c-10.595-5.97-17.633-17.147-17.633-29.969 0-18.935 15.349-34.284 34.284-34.284 6.512 0 12.599 1.815 17.785 4.968l-0.152-0.086 102.011 58.901 0.92-102.656c0.177-18.793 15.448-33.961 34.263-33.971h0.314c18.798 0.165 33.972 15.442 33.972 34.263 0 0.111-0.001 0.221-0.002 0.331v-0.017l-1.272 141.402 183.631 105.924v-211.966l-123.105-69.586c-10.748-5.929-17.908-17.188-17.908-30.12 0-18.935 15.349-34.284 34.284-34.284 6.4 0 12.391 1.754 17.518 4.807l-0.157-0.087 89.369 50.506v-117.822c0.898-18.217 15.886-32.646 34.245-32.646s33.347 14.43 34.242 32.566l0.003 0.080v117.822l89.526-50.506c4.731-2.621 10.373-4.164 16.376-4.164 18.935 0 34.284 15.349 34.284 34.284 0 12.534-6.726 23.497-16.766 29.477l-0.157 0.087-123.105 69.586v211.966l183.611-106.003-1.311-141.402c-0.001-0.099-0.002-0.217-0.002-0.334 0-18.814 15.164-34.087 33.936-34.263h0.33c18.81 0.010 34.076 15.167 34.264 33.933v0.018l0.959 102.676 102.030-58.901c4.908-2.872 10.808-4.568 17.103-4.568 18.945 0 34.302 15.358 34.302 34.302 0 12.649-6.847 23.699-17.036 29.647l-0.163 0.088z" />
<glyph unicode="&#xe920;" glyph-name="star-half" d="M500.395 884.087c5.281 12.76 17.73 21.081 31.539 21.081s26.259-8.321 31.539-21.081l109.227-263.509c4.893-11.752 15.92-19.805 28.604-20.89l282.146-23.962c13.616-1.078 25.278-10.169 29.646-23.11s0.601-27.24-9.576-36.35l-215.177-188.075c-9.476-8.287-13.622-21.117-10.786-33.382l64.717-279.347c3.090-13.392-2.154-27.331-13.305-35.366s-26.033-8.598-37.759-1.43l-241.459 147.866c-10.952 6.721-24.751 6.721-35.703 0l-241.391-147.934c-11.726-7.169-26.608-6.605-37.759 1.43s-16.394 21.974-13.305 35.366l64.717 279.347c2.836 12.265-1.31 25.095-10.786 33.382l-214.972 188.143c-10.329 9.013-14.264 23.331-9.992 36.357s15.924 22.232 29.584 23.376l282.146 23.962c12.684 1.084 23.711 9.137 28.604 20.89l109.5 263.236zM553.711 797.116c-5.194 12.938-17.734 21.416-31.676 21.416s-26.481-8.478-31.676-21.416c0-483.669 18.705-177.493 13.653-620.407 11.167 7.090 25.424 7.090 36.591 0l177.493-112.708c11.654-7.399 26.618-7.050 37.914 0.884s16.702 21.892 13.695 35.366l-48.674 216.815c-2.678 12.007 1.313 24.526 10.445 32.768l162.202 146.773c10.078 9.116 13.788 23.342 9.446 36.219s-15.908 21.952-29.449 23.105l-210.466 18.5c-12.806 1.134-23.888 9.367-28.672 21.299l-80.828 201.387z" />
<glyph unicode="&#xe921;" glyph-name="star-outline" d="M500.395 884.087c5.281 12.76 17.73 21.081 31.539 21.081s26.259-8.321 31.539-21.081l109.227-263.509c4.893-11.752 15.92-19.805 28.604-20.89l282.146-23.962c13.616-1.078 25.278-10.169 29.646-23.11s0.601-27.24-9.576-36.35l-215.177-188.075c-9.476-8.287-13.622-21.117-10.786-33.382l64.717-279.347c3.090-13.392-2.154-27.331-13.305-35.366s-26.033-8.598-37.759-1.43l-241.459 147.866c-10.952 6.721-24.751 6.721-35.703 0l-241.391-147.934c-11.726-7.169-26.608-6.605-37.759 1.43s-16.394 21.974-13.305 35.366l64.717 279.347c2.836 12.265-1.31 25.095-10.786 33.382l-214.972 188.143c-10.329 9.013-14.264 23.331-9.992 36.357s15.924 22.232 29.584 23.376l282.146 23.962c12.684 1.084 23.711 9.137 28.604 20.89l109.5 263.236zM500.258 797.116l-80.759-201.387c-4.784-11.933-15.866-20.165-28.672-21.299l-210.603-18.5c-13.528-1.177-25.072-10.261-29.397-23.133s-0.609-27.084 9.464-36.191l162.202-147.046c9.132-8.242 13.122-20.761 10.445-32.768l-48.538-216.815c-3.006-13.473 2.399-27.431 13.695-35.366s26.26-8.283 37.914-0.884l177.766 112.981c11.167 7.090 25.424 7.090 36.591 0l177.493-112.708c11.654-7.399 26.618-7.050 37.914 0.884s16.702 21.892 13.695 35.366l-48.538 216.815c-2.678 12.007 1.313 24.526 10.445 32.768l162.27 146.773c10.073 9.107 13.789 23.319 9.464 36.191s-15.869 21.956-29.397 23.133l-210.603 18.5c-12.806 1.134-23.888 9.367-28.672 21.299l-80.828 201.387c-5.194 12.938-17.734 21.416-31.676 21.416s-26.481-8.478-31.676-21.416z" />
<glyph unicode="&#xe922;" glyph-name="star" horiz-adv-x="1097" d="M483.788 937.413c5.658 13.671 18.996 22.587 33.792 22.587s28.134-8.915 33.792-22.587l117.029-282.331c5.243-12.592 17.057-21.22 30.647-22.382l302.299-25.673c14.589-1.155 27.084-10.896 31.764-24.761s0.644-29.186-10.26-38.946l-230.546-201.509c-10.153-8.879-14.595-22.626-11.557-35.767l69.339-299.301c3.31-14.349-2.308-29.283-14.255-37.892s-27.892-9.213-40.456-1.532l-258.706 158.427c-11.735 7.201-26.519 7.201-38.254 0l-258.633-158.501c-12.564-7.681-28.509-7.077-40.456 1.532s-17.565 23.543-14.255 37.892l69.339 299.301c3.038 13.141-1.404 26.888-11.557 35.767l-230.327 201.582c-11.067 9.657-15.283 24.998-10.706 38.954s17.061 23.82 31.698 25.046l302.299 25.673c13.59 1.162 25.404 9.79 30.647 22.382l117.321 282.039z" />
<glyph unicode="&#xe923;" glyph-name="cross-icon" horiz-adv-x="956" d="M552.725 478.932l387.452-387.518c20.674-20.674 20.674-54.194 0-74.868s-54.194-20.674-74.868 0l-387.453 387.453-387.519-387.453c-20.674-20.674-54.194-20.674-74.868 0s-20.674 54.194-0.001 74.867l387.453 387.519-387.452 387.386c-20.693 20.693-20.693 54.243 0 74.936s54.243 20.693 74.936 0l387.453-387.453 387.451 387.385c20.674 20.674 54.194 20.674 74.868 0s20.674-54.194-0.001-74.869l-387.451-387.385z" />
<glyph unicode="&#xe924;" glyph-name="dollar-icon" horiz-adv-x="626" d="M608.996 282.34c0 151.438-131.812 189.554-252.757 218.965v220.046c62.234-7.141 122.296-27.175 176.356-58.823l44.658 110.023c-67.002 40.318-143.056 63.165-221.184 66.446v121.003h-89.145v-123.108c-169.927-16.327-250.311-113.323-250.311-224.427 0-151.438 129.65-190.635 250.311-220.046v-217.884c-79.001 6.4-154.561 35.105-217.884 82.773l-49.038-110.023c77.831-56.35 170.868-87.878 266.923-90.453v-120.832h89.316v121.913c171.065 17.465 252.757 113.323 252.757 224.427zM156.9 619.008c0 47.957 32.711 87.154 110.023 99.157v-193.934c-63.204 18.489-110.023 42.496-110.023 94.777zM356.011 176.697v192.796c65.365-18.546 113.323-43.577 113.323-96.711 0.228-47.047-33.564-84.139-113.095-96.085h-0.228z" />
<glyph unicode="&#xe925;" glyph-name="filter-icon" d="M946.432 477.747c18.38 0 33.28-14.9 33.28-33.28s-14.9-33.28-33.28-33.28h-535.040c-14.766-58.657-67.513-99.771-128-99.771s-113.234 41.114-128 99.771h-71.014c-18.38 0-33.28 14.9-33.28 33.28s14.9 33.28 33.28 33.28h70.861c14.766 58.657 67.513 99.771 128 99.771s113.234-41.114 128-99.771h535.194zM946.432 809.318h0.205c18.38 0 33.28-14.9 33.28-33.28s-14.9-33.28-33.28-33.28h-104.192c-14.766-58.657-67.513-99.771-128-99.771s-113.234 41.114-128 99.771h-502.067c-18.38 0-33.28 14.9-33.28 33.28s14.9 33.28 33.28 33.28h501.914c14.766 58.657 67.513 99.771 128 99.771s113.234-41.114 128-99.771h104.141zM946.432 146.176h0.205c18.38 0 33.28-14.9 33.28-33.28s-14.9-33.28-33.28-33.28h-170.496c-14.766-58.657-67.513-99.771-128-99.771s-113.234 41.114-128 99.771h-435.763c-18.38 0-33.28 14.9-33.28 33.28s14.9 33.28 33.28 33.28h435.558c14.766 58.657 67.513 99.771 128 99.771s113.234-41.114 128-99.771h170.496z" />
<glyph unicode="&#xe926;" glyph-name="hotel-icon" horiz-adv-x="931" d="M297.891-45.382v968.145c0 20.565 16.671 37.236 37.236 37.236h521.728c20.565 0 37.236-16.671 37.236-37.236v-956.509c0-6.427-5.21-11.636-11.636-11.636h-107.055c-6.427 0-11.636 5.21-11.636 11.636v238.778c0.049 5.424 3.796 10.114 9.076 11.357 17.123 4.398 28.793 20.23 27.927 37.888-1.309 20.108-18.111 35.683-38.26 35.468h-333.033c-20.149 0.216-36.951-15.36-38.26-35.468-0.865-17.658 10.804-33.49 27.927-37.888 5.28-1.243 9.028-5.933 9.076-11.357v-238.778c0-6.427-5.21-11.636-11.636-11.636h-118.691zM726.109 811.055v-37.236c0-13.303 7.097-25.596 18.618-32.248s25.715-6.652 37.236 0c11.521 6.652 18.618 18.944 18.618 32.248v37.236c0 20.565-16.671 37.236-37.236 37.236s-37.236-16.671-37.236-37.236zM726.109 624.873v-37.236c0-13.303 7.097-25.596 18.618-32.248s25.715-6.652 37.236 0c11.521 6.652 18.618 18.944 18.618 32.248v37.236c0 20.565-16.671 37.236-37.236 37.236s-37.236-16.671-37.236-37.236zM726.109 438.691v-37.236c0-13.303 7.097-25.596 18.618-32.248s25.715-6.652 37.236 0c11.521 6.652 18.618 18.944 18.618 32.248v37.236c0 20.565-16.671 37.236-37.236 37.236s-37.236-16.671-37.236-37.236zM558.545 811.055v-37.236c0-20.565 16.671-37.236 37.236-37.236s37.236 16.671 37.236 37.236v37.236c0 20.565-16.671 37.236-37.236 37.236s-37.236-16.671-37.236-37.236zM558.545 624.873v-37.236c0-20.565 16.671-37.236 37.236-37.236s37.236 16.671 37.236 37.236v37.236c0 20.565-16.671 37.236-37.236 37.236s-37.236-16.671-37.236-37.236zM558.545 438.691v-37.236c0-20.565 16.671-37.236 37.236-37.236s37.236 16.671 37.236 37.236v37.236c0 20.565-16.671 37.236-37.236 37.236s-37.236-16.671-37.236-37.236zM390.982 811.055v-37.236c0-20.565 16.671-37.236 37.236-37.236s37.236 16.671 37.236 37.236v37.236c0 20.565-16.671 37.236-37.236 37.236s-37.236-16.671-37.236-37.236zM390.982 624.873v-37.236c0-20.565 16.671-37.236 37.236-37.236s37.236 16.671 37.236 37.236v37.236c0 20.565-16.671 37.236-37.236 37.236s-37.236-16.671-37.236-37.236zM390.982 438.691v-37.236c0-20.565 16.671-37.236 37.236-37.236s37.236 16.671 37.236 37.236v37.236c0 20.565-16.671 37.236-37.236 37.236s-37.236-16.671-37.236-37.236zM514.327-45.382c-6.427 0-11.636 5.21-11.636 11.636v237.382c0 6.427 5.21 11.636 11.636 11.636h162.909c6.427 0 11.636-5.21 11.636-11.636v-237.382c0-6.427-5.21-11.636-11.636-11.636h-162.909zM0 680.727c0 20.565 16.671 37.236 37.236 37.236h174.545c6.427 0 11.636-5.21 11.636-11.636v-740.073c0-6.427-5.21-11.636-11.636-11.636h-174.545c-9.876 0-19.347 3.923-26.33 10.906s-10.906 16.454-10.906 26.33v688.873zM74.473 531.782v-37.236c0-20.565 16.671-37.236 37.236-37.236s37.236 16.671 37.236 37.236v37.236c0 20.565-16.671 37.236-37.236 37.236s-37.236-16.671-37.236-37.236zM74.473 364.218v-37.236c0-20.565 16.671-37.236 37.236-37.236s37.236 16.671 37.236 37.236v37.236c0 20.565-16.671 37.236-37.236 37.236s-37.236-16.671-37.236-37.236zM74.473 196.655v-37.236c0-20.565 16.671-37.236 37.236-37.236s37.236 16.671 37.236 37.236v37.236c0 20.565-16.671 37.236-37.236 37.236s-37.236-16.671-37.236-37.236z" />
<glyph unicode="&#xe927;" glyph-name="location-fill-icon" horiz-adv-x="717" d="M358.4 960c-197.939 0-358.4-160.461-358.4-358.4 0-268.8 358.4-665.6 358.4-665.6s358.4 396.8 358.4 665.6c0 197.939-160.461 358.4-358.4 358.4zM358.4 473.6c-70.692 0-128 57.308-128 128s57.308 128 128 128c70.692 0 128-57.308 128-128 0-33.948-13.486-66.505-37.49-90.51s-56.562-37.49-90.51-37.49z" />
<glyph unicode="&#xe928;" glyph-name="location-outline" horiz-adv-x="846" d="M668.235 245.493c141.038 154.323 141.038 390.756-0.042 545.126-64.638 71.035-156.229 111.526-252.271 111.526s-187.633-40.491-252.313-111.572c-141.038-154.323-141.038-390.756-0.249-544.811l205.633-219.37c12.032-13.233 29.088-20.777 46.974-20.777s34.942 7.544 47.27 21.098l204.309 218.001c0.224 0.262 0.454 0.522 0.689 0.78zM710.757 206.181l-204.994-218.726c-23.001-25.297-55.606-39.719-89.797-39.719s-66.796 14.422-89.499 39.396l-205.583 219.316c-161.244 176.433-161.244 446.738-0.042 623.125 75.607 83.089 182.74 130.451 295.079 130.451s219.472-47.362 295.037-130.405c160.894-176.049 161.243-445.564 1.049-622.019-0.398-0.48-0.815-0.953-1.251-1.418zM541.919 518.033c0 69.561-56.391 125.952-125.952 125.952s-125.952-56.391-125.952-125.952c0-69.561 56.391-125.952 125.952-125.952s125.952 56.391 125.952 125.952zM599.797 518.033c0-101.527-82.304-183.83-183.83-183.83s-183.83 82.304-183.83 183.83c0 101.527 82.304 183.83 183.83 183.83s183.83-82.304 183.83-183.83z" />
<glyph unicode="&#xe929;" glyph-name="location" horiz-adv-x="829" d="M119.808 840.241c159.725 159.725 418.689 159.725 578.414 0s159.725-418.689 0-578.414l-289.207-289.207-289.207 289.207c-159.711 159.711-159.711 418.654 0 578.365v0.049zM409.015 434.2c64.633 0 117.029 52.395 117.029 117.029s-52.395 117.029-117.029 117.029c-64.633 0-117.029-52.395-117.029-117.029s52.395-117.029 117.029-117.029z" />
<glyph unicode="&#xe92a;" glyph-name="road-distancee" horiz-adv-x="1617" d="M590.902 664.549c0.046 122.166-75.101 231.762-189.075 275.748s-243.264 13.289-325.301-77.235c-82.037-90.524-99.9-222.202-44.944-331.31l264.084-544.337 264.084 544.337c20.666 41.206 31.338 86.699 31.151 132.797zM295.451 501.032c-90.308 0-163.517 73.209-163.517 163.517s73.209 163.517 163.517 163.517c90.308 0 163.517-73.209 163.517-163.517-0.119-90.25-73.267-163.374-163.517-163.463v-0.054zM1387.251 951.646c-62.278 0.023-120.11-32.262-152.775-85.286s-35.487-119.197-7.454-174.81l160.229-330.483 160.283 330.536c28.011 55.616 25.171 121.782-7.504 174.793s-90.507 85.281-152.779 85.249zM1387.251 672.903c-54.828 0-99.274 44.447-99.274 99.274s44.447 99.274 99.274 99.274c54.828 0 99.274-44.447 99.274-99.274-0.089-54.791-44.483-99.185-99.274-99.274zM784.222 451.611l-30.666 0.539-15.36-31.906-131.557-272.707-190.841 4.15-79.549-164.056 373.491 8.192 110.969 357.484 531.348 9.27-38.696 79.764z" />
<glyph unicode="&#xe92b;" glyph-name="rupee-icon" horiz-adv-x="755" d="M680.421 821.437h-181.96l12.491-20.488c12.62-20.699 22.527-42.934 29.478-66.158l2.876-9.61h137.331c6.906 0 12.504-5.598 12.504-12.504v-86.663c0-6.906-5.598-12.504-12.504-12.504h-126.982l-0.827-12.59c-9.862-150.109-135.459-266.258-285.88-264.376l-35.090 0.439 352.275-325.351c3.777-3.49 5.031-8.942 3.156-13.735s-6.495-7.948-11.641-7.949h-178.765c-3.141 0.001-6.17 1.186-8.479 3.32l-357.436 329.895c-2.56 2.364-4.017 5.693-4.018 9.181v114.793c0.057 6.753 5.638 12.288 12.503 12.288h182.111c84.923-7.836 162.256 52.895 175.011 138.463l2.305 15.46h-359.425c-6.906 0-12.504 5.598-12.504 12.504v86.824c0.028 6.829 5.618 12.396 12.503 12.396h344.585l-17.28 21.835c-34.452 43.533-88.011 67.471-143.425 64.102l-183.88 0.025c-6.906 0-12.504 5.598-12.504 12.504v97.011c0 6.906 5.598 12.504 12.504 12.504h640.97c6.906 0 12.504-5.598 12.504-12.504v-86.609c0-6.906-5.598-12.504-12.504-12.504z" />
<glyph unicode="&#xe92c;" glyph-name="tick-icon" horiz-adv-x="1451" d="M500.481-20.974l-487.108 487.108 96.494 96.494 390.613-390.613 774.613 774.613 96.579-96.579-871.191-871.023z" />
<glyph unicode="&#xe92d;" glyph-name="tag" d="M0 455.774v408.24c0 53.012 42.975 95.986 95.986 95.986v0h408.24c26.517-0.030 50.511-10.808 67.865-28.211l423.79-423.665c17.376-17.371 28.124-41.372 28.124-67.883s-10.748-50.512-28.124-67.883l-408.24-408.24c-17.371-17.376-41.372-28.124-67.883-28.124s-50.512 10.748-67.883 28.124l-423.663 423.757c-17.412 17.363-28.192 41.37-28.213 67.895v0.004zM224.010 831.945c-53.012 0-95.986-42.975-95.986-95.986s42.975-95.986 95.986-95.986c53.012 0 95.986 42.975 95.986 95.986v0c0 0.019 0 0.041 0 0.063 0 53.012-42.975 95.986-95.986 95.986v0z" />
<glyph unicode="&#xe92f;" glyph-name="toilet" horiz-adv-x="768" d="M735.969 863.99c17.662 0.053 31.966 14.357 32.019 32.014v31.977c-0.053 17.662-14.357 31.966-32.014 32.019h-703.955c-17.662-0.053-31.966-14.357-32.019-32.014v-32.024c0.053-17.662 14.357-31.966 32.014-32.019h32.024v-313.326c-40.529-20.218-64.038-44.432-64.038-70.621 0-0.007 0-0.017 0-0.026 0-133.707 68.422-251.434 172.162-320.077l1.428-0.888-42.786-140.395c-1.767-5.584-2.785-12.006-2.785-18.666 0-35.303 28.608-63.924 63.906-63.944h384.043c35.3 0.020 63.908 28.641 63.908 63.944 0 6.66-1.018 13.082-2.907 19.119l0.122-0.453-42.786 140.395c105.168 69.53 173.59 187.257 173.59 320.964 0 0.009 0 0.018 0 0.027v-0.001c0 26.189-23.509 50.403-63.991 70.527v313.467zM159.86 815.985c0.027 8.818 7.168 15.959 15.983 15.986h96.154c8.818-0.027 15.959-7.168 15.986-15.983v-32.022c-0.027-8.818-7.168-15.959-15.983-15.986h-96.013c-8.818 0.027-15.959 7.168-15.986 15.983v0.003zM383.994 416.004c-154.218 0-279.192 28.587-279.192 63.991s124.973 63.991 279.192 63.991 279.192-28.587 279.192-63.991-124.973-63.991-279.192-63.991z" />
<glyph unicode="&#xe930;" glyph-name="train" horiz-adv-x="866" d="M433.217 960c-216.623 0-433.217-26.842-433.217-215.636v-512c0.297-104.204 84.839-188.562 189.083-188.562 0.164 0 0.327 0 0.491 0.001h-0.025l-81.339-80.729v-27.074h120.876l108.297 107.803h204.074l108.529-107.803h108.297v26.871l-81.339 80.729c0.087 0 0.189 0 0.292 0 104.279 0 188.861 84.337 189.257 188.524v512.009c-0.029 188.997-193.994 215.868-433.275 215.868zM189.549 151.694c-44.322 0.346-80.119 36.356-80.119 80.727 0 44.585 36.144 80.729 80.729 80.729s80.728-36.142 80.729-80.727v0c-0.099-44.607-36.282-80.73-80.903-80.73-0.153 0-0.306 0-0.459 0.001h0.024zM379.098 528.787h-270.801v215.519h270.772zM487.395 528.787v215.519h270.772v-215.636zM676.915 151.694c-44.322 0.346-80.119 36.356-80.119 80.727 0 44.585 36.144 80.729 80.729 80.729s80.728-36.142 80.729-80.727v0c-0.099-44.607-36.282-80.73-80.903-80.73-0.153 0-0.306 0-0.459 0.001h0.024z" />
<glyph unicode="&#xe931;" glyph-name="train-subway" horiz-adv-x="801" d="M798.45-16.892l-82.955 184.345c50.603 19.789 85.808 68.138 85.884 124.719v534.269c-0.090 73.718-59.82 133.456-133.527 133.559h-534.27c-73.726-0.090-133.469-59.833-133.559-133.551v-534.269c0.079-56.595 35.294-104.946 84.997-124.414l0.909-0.314-82.978-184.345c-2.078-4.228-3.293-9.203-3.293-14.461 0-18.444 14.952-33.395 33.395-33.395 13.772 0 25.596 8.336 30.703 20.237l0.083 0.217 31.216 69.356h611.29l31.216-69.356c5.19-12.119 17.015-20.455 30.786-20.455 18.444 0 33.395 14.952 33.395 33.395 0 5.258-1.215 10.233-3.381 14.658l0.087-0.197zM133.582 893.209h534.26c36.872-0.039 66.752-29.919 66.791-66.787v-0.004h-667.842c0.039 36.872 29.919 66.752 66.787 66.791h0.004zM718.696 759.65l-98.461-246.141c-5.009-12.406-16.952-21-30.902-21-0.039 0-0.077 0-0.116 0h-155.121v267.141zM367.328 759.65v-267.119h-155.059c-0.033 0-0.071 0-0.11 0-13.95 0-25.893 8.594-30.822 20.777l-0.080 0.223-98.529 246.119zM125.114 91.831l30.058 66.768h491.080l30.058-66.791zM667.842 225.39h-534.26c-36.872 0.039-66.752 29.919-66.791 66.787v327.489l52.398-130.948c15.033-37.205 50.855-62.978 92.697-62.978 0.135 0 0.269 0 0.404 0.001h376.842c0.118-0.001 0.259-0.001 0.399-0.001 41.838 0 77.656 25.774 92.443 62.309l0.239 0.668 52.375 130.948v-327.485c-0.039-36.856-29.893-66.726-66.739-66.791h-0.006zM634.446 358.949h-66.791c-18.444 0-33.395-14.952-33.395-33.395s14.952-33.395 33.395-33.395v0h66.791c18.444 0 33.395 14.952 33.395 33.395s-14.952 33.395-33.395 33.395v0zM233.746 358.949h-66.791c-18.444 0-33.395-14.952-33.395-33.395s14.952-33.395 33.395-33.395v0h66.791c18.444 0 33.395 14.952 33.395 33.395s-14.952 33.395-33.395 33.395v0z" />
<glyph unicode="&#xe932;" glyph-name="umbrella-beach" horiz-adv-x="1280" d="M230.77 686.194l204.231-74.354c70.372 163.072 172.402 288.569 277.988 347.392-8.947 0.478-19.421 0.75-29.959 0.75-188.428 0-356.516-87.085-466.212-223.203l-0.896-1.149c-4.020-5.295-6.44-11.996-6.44-19.263 0-13.838 8.776-25.626 21.065-30.103l0.223-0.071zM495.303 589.881l476.928-173.653c71.509 242.773 37.404 463.332-85.333 507.961-13.555 5.064-29.218 7.994-45.566 7.994-0.191 0-0.382 0-0.572-0.001h0.030c-116.053 0-256.54-138.354-345.515-342.3zM1042.972 838.997c12.517-32.129 21.813-69.481 26.206-108.32l0.191-2.073c1.942-21.638 3.049-46.806 3.049-72.233 0-93.518-14.976-183.538-42.661-267.792l1.724 6.059 205.227-74.638c3.324-1.279 7.169-2.019 11.187-2.019 17.133 0 31.121 13.464 31.96 30.389l0.003 0.075c0.095 3.983 0.15 8.676 0.15 13.381 0 194.136-92.384 366.694-235.587 476.111l-1.448 1.062zM1120 64h-477.867l129.877 356.949-120.292 43.804-145.806-400.754h-473.913c-17.663 0-31.984-14.311-32-31.97v-64.030c0-17.673 14.327-32 32-32v0h1088c17.673 0 32 14.327 32 32 0 0.010 0 0.020 0 0.030v-0.002 64c-0.016 17.661-14.337 31.972-32 31.972v0z" />
<glyph unicode="&#xe934;" glyph-name="water" horiz-adv-x="1536" d="M1499.28 106.856c-58.838 6.286-111.588 28.264-155.171 61.618l0.74-0.544c-17.474 13.963-39.891 22.406-64.28 22.406s-46.805-8.443-64.487-22.566l0.207 0.16c-53.384-37.748-119.82-60.338-191.533-60.338-74.121 0-142.605 24.132-198.025 64.968l0.92-0.647c-16.322 12.328-36.954 19.746-59.318 19.746-25.054 0-47.934-9.309-65.368-24.658l0.109 0.095c-53.162-37.263-119.195-59.548-190.433-59.548-74.001 0-142.385 24.046-197.766 64.751l0.928-0.651c-16.433 12.168-37.104 19.477-59.481 19.477-25.386 0-48.576-9.407-66.272-24.924l0.115 0.099c-42.692-32.499-95.337-54.059-152.666-59.612l-1.234-0.097c-20.553-2.651-36.27-20.041-36.27-41.102 0-0.22 0.002-0.439 0.005-0.658v0.033-85.883c-0.003-0.19-0.005-0.415-0.005-0.639 0-23.255 18.852-42.107 42.107-42.107 0.856 0 1.706 0.026 2.549 0.076l-0.116-0.006c79.121 6.579 151.275 31.419 213.829 70.259l-2.041-1.181c73.436-43.199 161.766-68.716 256.057-68.716s182.621 25.517 258.464 70.022l-2.407-1.306c73.436-43.199 161.766-68.716 256.057-68.716s182.621 25.517 258.464 70.022l-2.407-1.306c60.422-36.991 132.195-61.652 209.068-68.671l1.923-0.142c0.727-0.045 1.577-0.070 2.433-0.070 23.255 0 42.107 18.852 42.107 42.107 0 0.225-0.002 0.449-0.005 0.673v-0.034 84.138c0.009 0.319 0.013 0.694 0.013 1.070 0 21.53-15.887 39.35-36.578 42.375l-0.232 0.028zM1499.28 490.942c-58.838 6.286-111.588 28.264-155.171 61.618l0.74-0.544c-17.474 13.963-39.891 22.406-64.28 22.406s-46.805-8.443-64.487-22.566l0.207 0.16c-53.384-37.748-119.82-60.338-191.533-60.338-74.121 0-142.605 24.132-198.025 64.968l0.92-0.647c-16.322 12.328-36.954 19.746-59.318 19.746-25.054 0-47.934-9.309-65.368-24.658l0.109 0.095c-53.162-37.263-119.195-59.548-190.433-59.548-74.001 0-142.385 24.046-197.766 64.751l0.928-0.651c-16.433 12.168-37.104 19.477-59.481 19.477-25.386 0-48.576-9.407-66.272-24.924l0.115 0.099c-42.692-32.499-95.337-54.059-152.666-59.612l-1.234-0.097c-20.554-2.65-36.273-20.041-36.273-41.103 0-0.273 0.003-0.546 0.008-0.818l-0.001 0.041v-85.883c-0.003-0.19-0.005-0.415-0.005-0.639 0-23.255 18.852-42.107 42.107-42.107 0.856 0 1.706 0.026 2.549 0.076l-0.116-0.006c79.121 6.579 151.275 31.419 213.829 70.259l-2.041-1.181c73.436-43.199 161.766-68.716 256.057-68.716s182.621 25.517 258.464 70.022l-2.407-1.306c73.436-43.199 161.766-68.716 256.057-68.716s182.621 25.517 258.464 70.022l-2.407-1.306c60.422-36.991 132.195-61.652 209.068-68.671l1.923-0.142c0.727-0.045 1.577-0.070 2.433-0.070 23.255 0 42.107 18.852 42.107 42.107 0 0.225-0.002 0.449-0.005 0.673v-0.034 84.29c0.009 0.319 0.013 0.694 0.013 1.070 0 21.53-15.887 39.35-36.578 42.375l-0.232 0.028zM1499.28 875.027c-58.82 6.416-111.542 28.373-155.189 61.629l0.759-0.555c-17.474 13.963-39.891 22.406-64.28 22.406s-46.805-8.443-64.487-22.566l0.207 0.16c-53.384-37.748-119.82-60.338-191.533-60.338-74.121 0-142.605 24.132-198.025 64.968l0.92-0.647c-16.322 12.328-36.954 19.746-59.318 19.746-25.054 0-47.934-9.309-65.368-24.658l0.109 0.095c-53.162-37.263-119.195-59.548-190.433-59.548-74.001 0-142.385 24.046-197.766 64.751l0.928-0.651c-16.433 12.168-37.104 19.477-59.481 19.477-25.386 0-48.576-9.407-66.272-24.924l0.115 0.099c-42.692-32.499-95.337-54.059-152.666-59.612l-1.234-0.097c-20.554-2.65-36.273-20.041-36.273-41.103 0-0.273 0.003-0.546 0.008-0.818l-0.001 0.041v-85.883c-0.003-0.19-0.005-0.415-0.005-0.639 0-23.255 18.852-42.107 42.107-42.107 0.856 0 1.706 0.026 2.549 0.076l-0.116-0.006c79.121 6.579 151.275 31.419 213.829 70.259l-2.041-1.181c73.436-43.199 161.766-68.716 256.057-68.716s182.621 25.517 258.464 70.022l-2.407-1.306c73.436-43.199 161.766-68.716 256.057-68.716s182.621 25.517 258.464 70.022l-2.407-1.306c60.422-36.991 132.195-61.652 209.068-68.671l1.923-0.142c0.727-0.045 1.577-0.070 2.433-0.070 23.255 0 42.107 18.852 42.107 42.107 0 0.225-0.002 0.449-0.005 0.673v-0.034 84.29c0.009 0.319 0.013 0.694 0.013 1.070 0 21.53-15.887 39.35-36.578 42.375l-0.232 0.028z" />
<glyph unicode="&#xe935;" glyph-name="wifi" horiz-adv-x="1463" d="M1451.243 679.16c-188.666 174.081-441.745 280.829-719.756 280.829s-531.090-106.748-720.484-281.492l0.728 0.663c-7.259-6.661-11.794-16.192-11.794-26.782 0-10.193 4.2-19.405 10.965-26l0.008-0.007 78.187-77.425c6.7-6.607 15.906-10.687 26.065-10.687 9.711 0 18.55 3.728 25.167 9.83l-0.026-0.023c155.312 142.108 363.051 229.175 591.126 229.175s435.812-87.067 591.791-229.775l-0.665 0.6c6.591-6.079 15.431-9.807 25.141-9.807 10.159 0 19.365 4.080 26.069 10.691l-0.004-0.004 78.246 77.659c6.756 6.609 10.946 15.818 10.946 26.006 0 10.586-4.523 20.115-11.741 26.761l-0.026 0.023zM731.429 228.571c-80.791 0-146.286-65.494-146.286-146.286s65.494-146.286 146.286-146.286c80.791 0 146.286 65.494 146.286 146.286v0c0 80.791-65.494 146.286-146.286 146.286v0zM1194.804 419.611c-122.936 108.517-285.419 174.762-463.375 174.762s-340.438-66.245-464.134-175.419l0.759 0.657c-7.45-6.648-12.119-16.278-12.119-26.998 0-10.099 4.143-19.23 10.823-25.787l0.006-0.005 78.715-77.718c6.731-6.636 15.979-10.733 26.184-10.733 9.259 0 17.73 3.373 24.251 8.957l-0.051-0.042c89.52 77.228 206.976 124.266 335.419 124.266s245.9-47.038 336.084-124.827l-0.665 0.561c6.471-5.542 14.942-8.915 24.201-8.915 10.205 0 19.453 4.098 26.188 10.738l-0.004-0.004 78.715 77.718c6.735 6.569 10.912 15.734 10.912 25.874 0 10.677-4.631 20.271-11.993 26.886l-0.033 0.029z" />
<glyph unicode="&#xe936;" glyph-name="airport" horiz-adv-x="1029" d="M1008.844 202.98c1.705-0.751 3.694-1.187 5.784-1.187 8.108 0 14.68 6.572 14.68 14.68 0 0.491-0.024 0.977-0.071 1.456l0.005-0.061v74.859c-0.781 13.502-7.831 25.207-18.258 32.334l-0.144 0.093-392.073 233.451c-10.568 7.211-17.616 18.906-18.397 32.284l-0.005 0.113v261.799c-0.488 14.961-3.383 29.098-8.31 42.243l0.3-0.913s-23.464 58.065-64.378 64.527c-3.961 0.791-8.543 1.276-13.227 1.339l-0.054 0.001h-0.149c-5.418-0.022-10.693-0.584-15.788-1.637l0.512 0.088-4.645-1.042-7.087-2.174c-34.035-11.375-51.574-60.775-51.574-60.775-4.132-12.378-6.714-26.656-7.142-41.473l-0.005-0.214v-261.68c-0.783-13.539-7.87-25.272-18.345-32.393l-0.146-0.094-391.924-233.481c-10.564-7.214-17.612-18.907-18.397-32.283l-0.005-0.114v-74.919c-0.042-0.418-0.067-0.904-0.067-1.396 0-8.108 6.572-14.68 14.68-14.68 2.090 0 4.078 0.437 5.878 1.224l-0.094-0.037 388.024 125.957c1.705 0.751 3.694 1.187 5.784 1.187 8.108 0 14.68-6.572 14.68-14.68 0-0.491-0.024-0.977-0.071-1.456l0.005 0.061v-204.389c-0.805-13.804-7.267-25.956-17.081-34.275l-0.070-0.058-51.455-38.71c-9.884-8.377-16.346-20.529-17.145-34.202l-0.006-0.131v-49.876c-0.029-0.351-0.045-0.76-0.045-1.172 0-8.453 6.852-15.305 15.305-15.305 1.92 0 3.757 0.353 5.45 0.999l-0.105-0.035 130.244 37.4c6.189 1.554 13.293 2.445 20.606 2.445s14.417-0.891 21.211-2.572l-0.605 0.127 130.364-37.4c1.588-0.61 3.425-0.964 5.345-0.964 8.453 0 15.305 6.852 15.305 15.305 0 0.413-0.016 0.821-0.048 1.226l0.003-0.053v50.115c-0.805 13.804-7.267 25.956-17.081 34.275l-0.070 0.058-51.455 38.71c-9.876 8.383-16.335 20.532-17.145 34.2l-0.006 0.133v204.3c-0.042 0.418-0.067 0.904-0.067 1.396 0 8.108 6.572 14.68 14.68 14.68 2.090 0 4.078-0.437 5.878-1.224l-0.094 0.037 388.113-126.046z" />
<glyph unicode="&#xe937;" glyph-name="amusement-park" horiz-adv-x="1067" d="M865.388 379.243c3.917-2.395 8.658-3.814 13.73-3.814 5.233 0 10.114 1.51 14.23 4.118l-0.109-0.064c5.102 5.192 0.69 13.385-9.724 18.187l-181.841 84.333c-7.050 2.93-15.239 4.632-23.826 4.632-5.393 0-10.629-0.671-15.629-1.935l0.439 0.094-65.035-19.508c-9.364-2.998-20.258-5.131-31.512-5.973l-0.481-0.029c-6.543 0-12.005 9.214-12.005 20.528v198.498c0.135 11.383 9.394 20.559 20.797 20.559 0.074 0 0.149 0 0.223-0.001h471.623c0.072-0.001 0.156-0.001 0.241-0.001 11.397 0 20.649 9.18 20.767 20.548v66.667c-0.649 12.296-8.749 22.542-19.841 26.349l-0.207 0.062-496.664 145.077c-6.015 1.548-12.92 2.437-20.033 2.437s-14.018-0.889-20.611-2.561l0.578 0.124-490.512-145.047c-11.283-3.892-19.361-14.146-19.985-26.37l-0.003-0.071v-66.656c0.118-11.38 9.371-20.559 20.767-20.559 0.085 0 0.169 0.001 0.254 0.002h465.229c0.063 0.001 0.137 0.001 0.211 0.001 11.402 0 20.662-9.176 20.797-20.546v-198.661c-0.152-11.387-9.418-20.559-20.826-20.559-0.064 0-0.128 0-0.192 0.001h-8.453c-13.845 0.708-26.331 6.004-36.094 14.383l0.080-0.067-112.184 107.262c-9.68 8.323-22.166 13.629-35.868 14.34l-0.147 0.006h-51.74c-12.396 0.237-23.399 6.005-30.674 14.932l-0.058 0.074c-6.409 8.654-16.358 14.372-27.665 15.002l-0.096 0.004c-9.904 0-12.935-7.743-6.723-17.287l0.99-1.501c2.908-4.98 4.625-10.963 4.625-17.347s-1.717-12.367-4.714-17.513l0.089 0.166-56.122-87.364c-2.231-3.684-3.552-8.135-3.552-12.894 0-7.212 3.032-13.716 7.892-18.307l0.012-0.011 3.992-3.571c5.548-4.484 12.688-7.199 20.463-7.199 4.909 0 9.565 1.082 13.742 3.021l-0.202-0.084 60.023 31.332c3.059 1.567 6.674 2.485 10.502 2.485 7.972 0 15.014-3.98 19.249-10.061l0.051-0.077 66.026-101.11c2.237-3.58 3.563-7.928 3.563-12.586 0-7.185-3.156-13.633-8.158-18.033l-0.027-0.023-30.162-25.21c-7.326-6.767-11.898-16.422-11.898-27.145 0-2.189 0.191-4.334 0.556-6.419l-0.032 0.221 39.015-170.347c2.211-9.044 10.245-15.651 19.822-15.651 1.808 0 3.561 0.235 5.23 0.677l-0.142-0.032 27.191 6.723c9.383 2.392 16.211 10.767 16.211 20.737 0 1.552-0.165 3.066-0.48 4.524l0.025-0.141-26.47 115.185c-0.3 1.354-0.472 2.91-0.472 4.506 0 9.996 6.741 18.418 15.925 20.968l0.153 0.036 66.866 18.007c12.243 3.114 26.375 5.055 40.908 5.369l0.208 0.004h8.463c0.072 0.001 0.157 0.001 0.242 0.001 11.365 0 20.598-9.129 20.766-20.454v-204.306c-0.152-11.354-9.391-20.499-20.766-20.499-0.085 0-0.17 0.001-0.255 0.002h-465.079c-0.072 0.001-0.156 0.001-0.241 0.001-11.397 0-20.649-9.18-20.767-20.548v-66.607c0.084-11.422 9.363-20.649 20.798-20.649 0.074 0 0.148 0 0.222 0.001h1016.726c0.072-0.001 0.156-0.001 0.241-0.001 11.407 0 20.666 9.197 20.767 20.58v66.576c-0.118 11.38-9.371 20.559-20.767 20.559-0.085 0-0.169-0.001-0.254-0.002h-462.888c-0.072-0.001-0.157-0.001-0.242-0.001-11.375 0-20.615 9.146-20.766 20.485v204.304c0.168 11.341 9.401 20.469 20.766 20.469 0.085 0 0.17-0.001 0.255-0.002h23.996c14.734-0.326 28.855-2.266 42.404-5.651l-1.318 0.279 66.866-18.007c9.339-2.56 16.088-10.972 16.088-20.961 0-1.611-0.176-3.182-0.509-4.693l0.027 0.144-26.41-115.185c-0.309-1.357-0.486-2.915-0.486-4.515 0-9.92 6.807-18.25 16.006-20.573l0.147-0.031 27.251-6.723c1.533-0.414 3.294-0.652 5.11-0.652 9.574 0 17.603 6.612 19.771 15.519l0.029 0.139 39.015 170.347c0.376 1.963 0.591 4.22 0.591 6.528 0 10.433-4.396 19.839-11.437 26.468l-0.018 0.017c-9.066 8.555-15.163 20.17-16.634 33.186l-0.023 0.247-3.391 60.264c-0.69 11.254 7.263 16.356 17.557 11.284z" />
<glyph unicode="&#xe938;" glyph-name="bed" horiz-adv-x="1303" d="M1239.86 587.641h-1.168c-34.989-0.095-63.328-28.433-63.423-63.414v-0.009c-0.031-3.521-2.877-6.367-6.395-6.398h-1034.462c-3.521 0.031-6.367 2.877-6.398 6.395v0.003c-0.095 34.989-28.433 63.328-63.414 63.423h-1.177c-34.989-0.095-63.328-28.433-63.423-63.414v-524.916c0.095-34.989 28.433-63.328 63.414-63.423h1.177c34.989 0.095 63.328 28.433 63.423 63.414v18.034c0.031 6.409 5.218 11.596 11.625 11.628h1024.003c6.409-0.031 11.596-5.218 11.628-11.625v-18.028c0.095-34.989 28.433-63.328 63.414-63.423h1.177c34.989 0.095 63.328 28.433 63.423 63.414v524.916c-0.095 34.989-28.433 63.328-63.414 63.423h-0.009zM153.327 570.172h65.481c6.409 0.031 11.596 5.218 11.628 11.625v37.834c0.063 25.692 20.874 46.503 46.56 46.566h283.74c25.692-0.063 46.503-20.874 46.566-46.56v-37.837c0.031-6.409 5.218-11.596 11.625-11.628h69.824c6.409 0.031 11.596 5.218 11.628 11.625v37.834c0.063 25.692 20.874 46.503 46.56 46.566h283.74c25.692-0.063 46.503-20.874 46.566-46.56v-37.837c0.031-6.409 5.218-11.596 11.625-11.628h65.206c12.818 0.063 23.192 10.437 23.255 23.249v273.392c-0.158 51.341-41.735 92.918-93.061 93.076h-861.119c-51.341-0.158-92.918-41.735-93.076-93.061v-273.456c0.094-12.794 10.456-23.137 23.249-23.199h0.006z" />
<glyph unicode="&#xe939;" glyph-name="bus" d="M976.014 704h-16.014v96c0 89.6-198.4 160-448 160s-448-70.4-448-160v-96h-15.986c-0.008 0-0.018 0-0.028 0-26.502 0-47.986-21.484-47.986-47.986 0-0.010 0-0.020 0-0.030v0.001-160c0.016-26.505 21.507-47.986 48.014-47.986h15.986v-320c0-35.346 28.654-64 64-64v0-64c0-35.346 28.654-64 64-64v0h64c35.346 0 64 28.654 64 64v0 64h384v-64c0-35.346 28.654-64 64-64v0h64c35.346 0 64 28.654 64 64v0 64h12.8c0.213-0.003 0.464-0.005 0.716-0.005 27.884 0 50.489 22.605 50.489 50.489 0 0.252-0.002 0.503-0.006 0.754v-0.038 332.8h16.014c26.495 0.016 47.97 21.49 47.986 47.984v160.002c0 0.008 0 0.018 0 0.028 0 26.502-21.484 47.986-47.986 47.986v0zM224 160c-35.346 0-64 28.654-64 64s28.654 64 64 64c35.346 0 64-28.654 64-64v0c0-35.346-28.654-64-64-64v0zM256 384c-35.346 0-64 28.654-64 64v0 256c0 35.346 28.654 64 64 64v0h512c35.346 0 64-28.654 64-64v0-256c0-35.346-28.654-64-64-64v0zM800 160c-35.346 0-64 28.654-64 64s28.654 64 64 64c35.346 0 64-28.654 64-64v0c0-35.346-28.654-64-64-64v0z" />
<glyph unicode="&#xe93a;" glyph-name="cancel-green" d="M512 960c-282.77 0-512-229.23-512-512s229.23-512 512-512c282.77 0 512 229.23 512 512v0c0 0.137 0 0.299 0 0.461 0 282.515-229.024 511.539-511.539 511.539-0.162 0-0.325 0-0.487 0h0.026zM768 264.192l-72.192-72.192-183.808 183.808-183.808-183.808-72.192 72.192 183.808 183.808-183.808 183.808 72.192 72.192 183.808-183.808 183.808 183.808 72.192-72.192-183.808-183.808z" />
<glyph unicode="&#xe93b;" glyph-name="cancel-red" d="M512 960c-282.77 0-512-229.23-512-512s229.23-512 512-512c282.77 0 512 229.23 512 512v0c0 0.142 0 0.31 0 0.478 0 282.506-229.016 511.522-511.522 511.522-0.168 0-0.336 0-0.504 0h0.026zM768 264.192l-72.192-72.192-183.808 183.808-183.808-183.808-72.192 72.192 183.808 183.808-183.808 183.808 72.192 72.192 183.808-183.808 183.808 183.808 72.192-72.192-183.808-183.808z" />
<glyph unicode="&#xe93c;" glyph-name="contract" horiz-adv-x="1536" d="M1103.467 734.933c-0.306-0.023-0.662-0.036-1.021-0.036-7.608 0-13.846 5.864-14.442 13.318l-0.003 0.051v197.556c0.065 0.481 0.102 1.037 0.102 1.602 0 6.873-5.513 12.459-12.358 12.576h-615.522c-6.837-0.142-12.325-5.718-12.325-12.575 0-0.565 0.037-1.121 0.109-1.667l-0.007 0.064v-197.778c0-7.822-8.622-12.044-16.622-12.044h-417.022c-8.128-1.010-14.356-7.874-14.356-16.193 0-0.026 0-0.051 0-0.077v0.004-219.822c0-7.733 6.489-19.911 14.356-19.911h671.556c9.517 2.305 16.708 10.109 18.074 19.785l0.015 0.126v46.889c0 7.822 2.933 29.2 10.889 29.2h106.444c7.956 0 10.844-21.422 10.844-29.2v-46.889c1.369-9.78 8.52-17.575 17.837-19.877l0.163-0.034h671.378c8 0 14.444 12.178 14.444 19.911v219.822c0 0.030 0 0.066 0 0.102 0 8.342-6.279 15.217-14.369 16.157l-0.076 0.007h-416.978zM546.978 736c-7.956 0-2.978 4.444-2.978 12.044v112.4c0 7.822-4.978 3.556 2.978 3.556h442.044c7.956 0 2.978 4.444 2.978-3.556v-112.4c0-7.778 4.978-12.044-2.978-12.044h-442.044zM833.778 265.2c0-7.733-4.667-9.2-12.622-9.2h-106.489c-7.956 0-10.889-3.422-10.889 4.444v157.911c0 7.733-10.133 29.644-18.044 29.644h-671.378c-7.867 0-14.356-21.911-14.356-29.644v-468.133c0.1-7.861 6.484-14.198 14.353-14.222h1507.202c0.027 0 0.058 0 0.090 0 7.866 0 14.254 6.326 14.354 14.169v468.187c0 7.733-6.444 29.644-14.444 29.644h-671.556c-7.911 0-18-21.911-18-29.644v-157.911l1.778 4.889z" />
<glyph unicode="&#xe93d;" glyph-name="dining" horiz-adv-x="1078" d="M302.296 384.379l159.612 159.612-395.912 395.318c-40.771-40.877-65.982-97.292-65.982-159.596s25.21-118.718 65.987-159.6l-0.005 0.005zM684.68 486.476c86.29-40.027 207.559-11.846 297.215 77.843 107.706 107.706 128.693 262.237 45.67 345.161-82.495 82.495-236.861 62.037-345.161-45.67-89.689-89.689-117.87-210.924-77.843-297.215l-550.41-550.509 79.526-79.526 388.554 387.465 388.191-388.026 79.526 79.526-388.191 388.026z" />
<glyph unicode="&#xe93e;" glyph-name="door-closed" horiz-adv-x="1280" d="M1247.99 64h-224.147v794.386c0.023 0.788 0.035 1.716 0.035 2.647 0 53.565-42.532 97.195-95.667 98.962l-0.162 0.004h-576.059c-53.401-1.644-96.065-45.326-96.065-98.974 0-0.928 0.013-1.853 0.038-2.775l-0.003 0.136v-794.347h-223.951c0 0 0 0 0 0-17.679 0-32.010-14.331-32.010-32.010 0-0.028 0-0.055 0-0.083v0.004-64.020c0-17.679 14.331-32.010 32.010-32.010h1215.98c17.679 0 32.010 14.331 32.010 32.010v0 64.020c0 0.012 0 0.025 0 0.039 0 17.679-14.331 32.010-32.010 32.010v0zM831.98 383.98c-35.318 0.022-63.941 28.659-63.941 63.98 0 35.335 28.645 63.98 63.98 63.98s63.98-28.645 63.98-63.98v0c-0.022-35.34-28.676-63.98-64.020-63.98v0z" />
<glyph unicode="&#xe93f;" glyph-name="door-icon" horiz-adv-x="1280" d="M1248.007 64.026h-160.020v669.058c0.005 0.381 0.008 0.832 0.008 1.283 0 53.34-42.781 96.689-95.903 97.605l-0.086 0.001h-224.007v-127.974h192.013v-768h287.993c0.079-0.001 0.172-0.001 0.266-0.001 17.523 0 31.729 14.206 31.729 31.729 0 0.093 0 0.187-0.001 0.28v-0.014 63.987c0.001 0.095 0.002 0.206 0.002 0.318 0 17.523-14.206 31.729-31.729 31.729-0.094 0-0.187 0-0.28-0.001h0.014zM624.479 957.99l-384.026-99.47c-28.178-7.896-48.497-33.352-48.497-63.553 0-0.283 0.002-0.565 0.005-0.846v0.043-730.137h-159.967c-0.079 0.001-0.172 0.001-0.266 0.001-17.523 0-31.729-14.206-31.729-31.729 0-0.093 0-0.187 0.001-0.28v0.014-63.987c-0.001-0.079-0.001-0.172-0.001-0.266 0-17.523 14.206-31.729 31.729-31.729 0.093 0 0.187 0 0.28 0.001h672.006v957.581c0.012 0.467 0.019 1.017 0.019 1.568 0 35.631-28.885 64.516-64.516 64.516-5.26 0-10.372-0.629-15.267-1.817l0.441 0.090zM527.97 384.013c-26.441 0-48.017 28.662-48.017 63.987s21.523 63.987 48.017 63.987 48.017-28.662 48.017-63.987-21.47-63.987-48.017-63.987z" />
<glyph unicode="&#xe940;" glyph-name="filter" horiz-adv-x="896" d="M831.995 767.995c0.496-0.014 1.079-0.022 1.664-0.022 35.355 0 64.016 28.661 64.016 64.016s-28.661 64.016-64.016 64.016c-0.585 0-1.168-0.008-1.75-0.023l0.086 0.002h-465.156c-22.542 38.524-63.717 63.989-110.839 63.989s-88.297-25.466-110.512-63.385l-0.327-0.604h-81.145c-34.632-0.929-62.352-29.224-62.352-63.995s27.72-63.066 62.267-63.993l0.086-0.002h81.145c22.542-38.524 63.717-63.989 110.839-63.989s88.297 25.466 110.512 63.385l0.327 0.604zM831.995 383.984c0.496-0.014 1.079-0.022 1.664-0.022 35.355 0 64.016 28.661 64.016 64.016s-28.661 64.016-64.016 64.016c-0.585 0-1.168-0.008-1.75-0.023l0.086 0.002h-81.145c-22.542 38.524-63.717 63.989-110.839 63.989s-88.297-25.466-110.512-63.385l-0.327-0.604h-465.156c-0.496 0.014-1.079 0.022-1.664 0.022-35.355 0-64.016-28.661-64.016-64.016s28.661-64.016 64.016-64.016c0.585 0 1.168 0.008 1.75 0.023l-0.086-0.002h465.156c22.542-38.524 63.717-63.989 110.839-63.989s88.297 25.466 110.512 63.385l0.327 0.604zM896.011 63.989c0-35.355-28.661-64.016-64.016-64.016v0h-465.156c-22.542-38.524-63.717-63.989-110.839-63.989s-88.297 25.466-110.512 63.385l-0.327 0.604h-81.145c-0.496-0.014-1.079-0.022-1.664-0.022-35.355 0-64.016 28.661-64.016 64.016s28.661 64.016 64.016 64.016c0.585 0 1.168-0.008 1.75-0.023l-0.086 0.002h81.145c22.542 38.524 63.717 63.989 110.839 63.989s88.297-25.466 110.512-63.385l0.327-0.604h465.156c35.34 0 63.992-28.636 64.016-63.971v-0.002z" />
<glyph unicode="&#xe941;" glyph-name="flight" horiz-adv-x="1312" d="M1271.84 16.858h-1229.995c-22.328 0-40.429-18.101-40.429-40.429s18.101-40.429 40.429-40.429h1229.995c22.328 0 40.429 18.101 40.429 40.429s-18.101 40.429-40.429 40.429v0zM232.040 399.549c7.47-9.026 18.675-14.733 31.212-14.733 3.646 0 7.179 0.483 10.54 1.388l-0.283-0.065 267.756 70.214-22.881-174.816c-0.22-1.583-0.345-3.412-0.345-5.271 0-22.328 18.101-40.429 40.429-40.429 4.254 0 8.354 0.657 12.205 1.875l-0.286-0.078 141.424 43.571c9.045 2.843 16.517 8.508 21.573 15.947l0.090 0.141 177.515 264.105 148.571 61.54c71.261 27.206 132.828 62.874 187.544 106.735l-1.354-1.049c72.25 63.31 69.196 120.579 53.927 157.467-13.963 33.702-47.997 73.843-130.868 73.843-57.070 0-132.771-19.363-224.981-57.534l-592.139-245.207-170.39 120.689c-6.5 4.655-14.612 7.443-23.376 7.443-5.628 0-10.988-1.15-15.857-3.228l0.264 0.1-117.503-49.081c-14.72-6.262-24.854-20.602-24.854-37.308 0-9.799 3.486-18.783 9.285-25.781l-0.054 0.067zM152.842 698.949l170.39-120.645c6.513-4.678 14.647-7.481 23.436-7.481 5.563 0 10.864 1.123 15.688 3.155l-0.266-0.099 612.585 253.837c81.212 33.635 148.261 51.405 194.045 51.405 46.249 0 53.463-17.393 56.162-23.921s11.308-27.307-32.507-65.7c-47.008-36.977-101.133-67.946-159.501-90.355l-4.251-1.434-159.857-66.209c-7.486-3.156-13.634-8.251-17.989-14.663l-0.090-0.141-176.431-262.268-67.603-20.823 22.505 171.961c0.209 1.546 0.329 3.333 0.329 5.147 0 22.328-18.101 40.429-40.429 40.429-3.641 0-7.169-0.481-10.525-1.384l0.283 0.065-300.794-78.888-171.806 208.54z" />
<glyph unicode="&#xe943;" glyph-name="room-service" horiz-adv-x="1463" d="M0 82.286h1462.857v-146.324h-1462.857zM865.995 755.913c7.345 17.063 11.647 36.92 11.719 57.773v0.028c0 80.791-65.494 146.286-146.286 146.286s-146.286-65.494-146.286-146.286v0c0.073-20.881 4.375-40.738 12.094-58.785l-0.374 0.984c-287.126-61.12-502.755-302.862-523.582-598.375l-0.118-2.090h1316.571c-20.95 297.614-236.596 539.36-519.42 599.694l-4.318 0.772z" />
<glyph unicode="&#xe944;" glyph-name="round-check" d="M1024 448c0-282.77-229.23-512-512-512s-512 229.23-512 512c0 282.77 229.23 512 512 512s512-229.23 512-512z" />
<glyph unicode="&#xe945;" horiz-adv-x="1191" d="M190.512 960h809.674c105.217 0 190.512-85.295 190.512-190.512v-642.977c0-105.217-85.295-190.512-190.512-190.512h-809.674c-105.217 0-190.512 85.295-190.512 190.512v642.977c0 105.217 85.295 190.512 190.512 190.512z" />
<glyph unicode="&#xe946;" horiz-adv-x="1191" d="M717.276 513.703h-201.704v51.557c0 40.311 32.679 72.99 72.99 72.99s72.99-32.679 72.99-72.99v0c0-8.299 6.728-15.027 15.027-15.027s15.027 6.728 15.027 15.027v0c0.002 0.207 0.002 0.452 0.002 0.698 0 56.909-46.134 103.043-103.043 103.043s-103.043-46.134-103.043-103.043c0-0.739 0.008-1.477 0.023-2.212l-0.002 0.11v-50.009h-25.862c-23.63-0.108-42.757-19.235-42.865-42.855v-206.072c0.108-23.63 19.235-42.757 42.855-42.865h257.606c23.63 0.108 42.757 19.235 42.865 42.855v205.858c-0.067 23.661-19.21 42.829-42.855 42.937h-0.010zM603.493 379.749v-73.823c0-0.033 0-0.072 0-0.11 0-8.111-6.277-14.756-14.238-15.342l-0.051-0.003c-0.22-0.012-0.479-0.018-0.738-0.018-8.31 0-15.047 6.735-15.050 15.044v0 74.252c-11.526 5.702-19.313 17.38-19.313 30.877 0 18.965 15.374 34.34 34.34 34.34s34.34-15.374 34.34-34.34c0-13.497-7.787-25.175-19.113-30.788l-0.2-0.090z" />
<glyph unicode="&#xe947;" glyph-name="shopping" horiz-adv-x="782" d="M412.026 790.694c2.593-0.27 5.603-0.423 8.649-0.423 45.271 0 82.606 33.974 87.902 77.816l0.042 0.424c0.094 1.506 0.147 3.267 0.147 5.040 0 46.33-36.508 84.133-82.325 86.21l-0.187 0.007c-2.645 0.281-5.715 0.442-8.822 0.442-45.257 0-82.566-34.032-87.731-77.901l-0.040-0.415c-0.086-1.447-0.136-3.139-0.136-4.842 0-46.355 36.486-84.188 82.306-86.349l0.194-0.007zM782.301 106.676l-29.884 256.015h-48.369c0.243 3.685 0.381 7.989 0.381 12.326 0 8.573-0.541 17.020-1.591 25.308l0.102-0.985c-1.429 13.237-5.685 22.945-12.595 25.978 5.617 5.799 9.336 13.467 10.135 21.983l0.011 0.146c0.070 0.861 0.111 1.863 0.111 2.875 0 12.663-6.287 23.858-15.911 30.632l-0.119 0.079-123.386 80.382-90.849 169.539c-15.928 23.609-41.469 39.688-70.881 42.622l-0.404 0.033c-1.588 0.088-3.447 0.138-5.317 0.138-21.534 0-41.515-6.647-58.004-18.002l0.345 0.225-180.269-138.314c-5.904-4.598-10.27-10.921-12.359-18.206l-0.061-0.25-41.984-167.469-3.295-4.986h-0.233c-8.117-1.204-14.489-7.428-15.902-15.367l-0.017-0.114c-2.771-8.585-4.656-18.533-5.262-28.824l-0.016-0.331v-19.243h-46.795l-29.884-256.19h120.762l-52.946-83.939c-4.086-7.088-6.977-15.39-8.155-24.234l-0.038-0.345c-0.061-1.002-0.096-2.173-0.096-3.352 0-31.488 24.809-57.181 55.947-58.599l0.128-0.005c1.292-0.094 2.799-0.148 4.319-0.148 21.891 0 41.184 11.123 52.536 28.026l0.144 0.227 89.332 142.366h11.662l-1.837 15.715 24.782 39.506c4.562 6.996 8.664 15.030 11.893 23.496l0.294 0.878 30.263 130.354 129.188-133.824 40.555-201.173c6.83-24.97 28.39-43.376 54.543-45.411l0.211-0.013c1.84-0.201 3.974-0.316 6.135-0.316 30.62 0 55.864 23.014 59.38 52.688l0.027 0.282-0.379 11.662-21.196 106.126zM97.146 384.237c1.195 10.088 5.015 15.831 11.662 15.831h2.507c7.541-9.059 18.821-14.783 31.437-14.783 12.090 0 22.951 5.256 30.425 13.607l0.034 0.039c1.992-1.831 3.468-4.195 4.204-6.866l0.024-0.102c1.731-5.638 2.788-12.132 2.915-18.853l0.001-0.068c0.009-0.486 0.015-1.059 0.015-1.633 0-3.090-0.154-6.145-0.453-9.156l0.031 0.38h-83.268c-0.072 1.82-0.113 3.956-0.113 6.102 0 5.438 0.263 10.814 0.778 16.117l-0.053-0.673zM220.503 362.691h-25.511c0.258 3.812 0.404 8.263 0.404 12.748 0 8.423-0.518 16.725-1.523 24.877l0.098-0.976c-0.205 9.26-3.728 17.66-9.423 24.093l0.034-0.040 31.838 137.439 62.801 48.165zM688.886 362.691h-83.472c-0.095 1.975-0.149 4.29-0.149 6.617 0 5.258 0.277 10.451 0.816 15.567l-0.055-0.638c1.108 10.088 4.986 15.831 11.662 15.831 9.68 0 18.426 0.292 26.24 0.466s18.455 0.671 31.867 0.671c5.131 0 8.747-2.916 10.583-9.184 1.763-5.644 2.822-12.142 2.915-18.873l0.001-0.049-0.35-10.379zM418.819 411.41l40.468 169.306 34.024-63.646c2.752-4.433 6.104-8.194 10-11.303l0.088-0.068 121.549-79.011h-18.368c-7.026 0-9.621-6.647-12.041-15.482-1.073-6.114-1.686-13.153-1.686-20.335 0-3.104 0.114-6.181 0.339-9.227l-0.024 0.407v-19.243h-54.346l-8.747-75.309-111.053 124.028z" />
<glyph unicode="&#xe948;" glyph-name="shower" horiz-adv-x="1170" d="M890.646 723.017l-361.267-361.092c-9.931-9.923-23.646-16.060-38.795-16.060s-28.864 6.137-38.795 16.061l-25.863 25.863c-9.923 9.931-16.060 23.646-16.060 38.795s6.137 28.864 16.061 38.795v0c-37.527 44.311-60.343 102.121-60.343 165.26 0 58.799 19.787 112.976 53.065 156.236l-0.446-0.604c-26.748 16.988-59.329 27.074-94.267 27.074-98.004 0-177.472-79.359-177.649-177.321v-700.023h-146.286v700.006c0 0.020 0 0.044 0 0.068 0 178.872 145.004 323.877 323.877 323.877 84.68 0 161.769-32.498 219.477-85.702l-0.224 0.204c23.46 7.81 50.47 12.316 78.532 12.316 63.153 0 120.976-22.821 165.673-60.666l-0.375 0.31c9.931 9.923 23.646 16.060 38.795 16.060s28.864-6.137 38.795-16.061l25.863-25.863c9.976-9.94 16.148-23.69 16.148-38.883 0-15.076-6.078-28.732-15.918-38.652l0.004 0.004zM877.714 557.714c0-20.198-16.374-36.571-36.571-36.571s-36.571 16.374-36.571 36.571c0 20.198 16.374 36.571 36.571 36.571v0c20.198 0 36.571-16.374 36.571-36.571v0zM950.857 557.714c0 20.198 16.374 36.571 36.571 36.571s36.571-16.374 36.571-36.571c0-20.198-16.374-36.571-36.571-36.571v0c-20.198 0-36.571 16.374-36.571 36.571v0zM1170.286 557.714c0-20.198-16.374-36.571-36.571-36.571s-36.571 16.374-36.571 36.571c0 20.198 16.374 36.571 36.571 36.571v0c20.198 0 36.571-16.374 36.571-36.571v0zM804.571 484.571c0-20.198-16.374-36.571-36.571-36.571s-36.571 16.374-36.571 36.571c0 20.198 16.374 36.571 36.571 36.571v0c20.198 0 36.571-16.374 36.571-36.571v0zM914.286 521.143c20.198 0 36.571-16.374 36.571-36.571s-16.374-36.571-36.571-36.571c-20.198 0-36.571 16.374-36.571 36.571v0c0 20.198 16.374 36.571 36.571 36.571v0zM1097.143 484.571c0-20.198-16.374-36.571-36.571-36.571s-36.571 16.374-36.571 36.571c0 20.198 16.374 36.571 36.571 36.571v0c20.198 0 36.571-16.374 36.571-36.571v0zM731.429 411.429c0-20.198-16.374-36.571-36.571-36.571s-36.571 16.374-36.571 36.571c0 20.198 16.374 36.571 36.571 36.571v0c20.198 0 36.571-16.374 36.571-36.571v0zM804.571 411.429c0 20.198 16.374 36.571 36.571 36.571s36.571-16.374 36.571-36.571c0-20.198-16.374-36.571-36.571-36.571v0c-20.198 0-36.571 16.374-36.571 36.571v0zM1024 411.429c0-20.198-16.374-36.571-36.571-36.571s-36.571 16.374-36.571 36.571c0 20.198 16.374 36.571 36.571 36.571v0c20.198 0 36.571-16.374 36.571-36.571v0zM731.429 338.286c0 20.198 16.374 36.571 36.571 36.571s36.571-16.374 36.571-36.571c0-20.198-16.374-36.571-36.571-36.571v0c-20.198 0-36.571 16.374-36.571 36.571v0zM950.857 338.286c0-20.198-16.374-36.571-36.571-36.571s-36.571 16.374-36.571 36.571c0 20.198 16.374 36.571 36.571 36.571v0c20.198 0 36.571-16.374 36.571-36.571v0zM731.429 265.143c0-20.198-16.374-36.571-36.571-36.571s-36.571 16.374-36.571 36.571c0 20.198 16.374 36.571 36.571 36.571v0c20.198 0 36.571-16.374 36.571-36.571v0zM877.714 265.143c0-20.198-16.374-36.571-36.571-36.571s-36.571 16.374-36.571 36.571c0 20.198 16.374 36.571 36.571 36.571v0c20.198 0 36.571-16.374 36.571-36.571v0zM804.571 192c0-20.198-16.374-36.571-36.571-36.571s-36.571 16.374-36.571 36.571c0 20.198 16.374 36.571 36.571 36.571v0c20.198 0 36.571-16.374 36.571-36.571v0zM731.429 118.857c0-20.198-16.374-36.571-36.571-36.571s-36.571 16.374-36.571 36.571c0 20.198 16.374 36.571 36.571 36.571v0c20.198 0 36.571-16.374 36.571-36.571v0z" />
<glyph unicode="&#xe949;" glyph-name="single-user" d="M512 384c159.058 0 288 128.942 288 288s-128.942 288-288 288c-159.058 0-288-128.942-288-288v0c0.029-159.046 128.954-287.971 287.997-288h0.003zM768 320h-110.182c-42.8-20.239-92.98-32.054-145.92-32.054s-103.12 11.816-148.047 32.954l2.127-0.899h-109.978c-141.385 0-256-114.615-256-256v0-32c0-53.019 42.981-96 96-96v0h832c53.019 0 96 42.981 96 96v0 32c0 141.385-114.615 256-256 256v0z" />
<glyph unicode="&#xe94a;" glyph-name="smoking-ban" d="M192.012 352.017c0.053-17.649 14.346-31.941 31.989-31.994h234.986l-192.012 191.965h-42.969c-17.649-0.053-31.941-14.346-31.994-31.989v-0.005zM512 960c-282.77 0-512-229.23-512-512s229.23-512 512-512c282.77 0 512 229.23 512 512v0c0 0.014 0 0.030 0 0.047 0 282.744-229.209 511.953-511.953 511.953-0.016 0-0.033 0-0.049 0h0.003zM512 64.023c-0.181 0-0.394 0-0.608 0-211.731 0-383.372 171.642-383.372 383.372 0 83.59 26.753 160.932 72.163 223.931l-0.777-1.133 534.787-534.787c-61.641-44.626-138.764-71.382-222.136-71.382-0.020 0-0.039 0-0.059 0h0.003zM602.402 448h165.598v-63.988h-101.609zM824.594 225.808l-94.215 94.215h69.755c17.649 0.053 31.941 14.346 31.994 31.989v127.982c-0.053 17.649-14.346 31.941-31.989 31.994h-261.771l-248.559 248.606c61.867 44.637 139.212 71.392 222.807 71.392 211.731 0 383.372-171.642 383.372-383.372 0-83.594-26.755-160.94-72.17-223.94l0.777 1.133zM641.186 704.233c-31.014 0.019-56.865 22.099-62.711 51.397l-0.068 0.408c-1.57 7.019-7.747 12.186-15.13 12.186-0.092 0-0.184-0.001-0.276-0.002h-32.538c-8.943-0.094-16.157-7.365-16.157-16.322 0-0.804 0.058-1.595 0.17-2.368l-0.010 0.088c9.554-62.094 62.565-109.102 126.572-109.189h0.009c31.014-0.019 56.865-22.099 62.711-51.397l0.068-0.408c1.57-7.019 7.747-12.186 15.13-12.186 0.092 0 0.184 0.001 0.276 0.002h32.538c8.943 0.094 16.157 7.365 16.157 16.322 0 0.804-0.058 1.595-0.17 2.368l0.010-0.088c-9.554 62.094-62.565 109.102-126.572 109.189h-0.009z" />
</font>
</defs>
</svg>
